&title=ばんきちゃんはもう誰にも止められない
&artist=ぱらどっと
&first=2.5
&des=Kattobi !
&lv_5=13+
&inote_1=
&inote_5=(200)
{8}
B7h[3:1]/B6h[3:1]/B2h[3:1]/B3h[3:1],,,,8-4[10:1],2,8,1-5[10:1],7,1,6-1[10:1],4,6,3-8[10:1],5,3,B7h[3:1]/B6h[3:1],,,,1V35[350#5:1],8,7,6V82[350#5:1],5,4,3V57[350#5:1],2,1,8-2[130#13:1]-4[8:1]-6[8:1]-8[8:1],2-4[130#13:1]-6[8:1]-8[8:1],4-6[130#13:1]-8[8:1],8h[5:2],,,,1-6[10:1],1,1,1-5[10:1],1,1,1-4[10:1],1,1,1,
{16}
6,3,6,3,
{8}
6-2-8[100#4:1]*-2-4[100#4:1],1/3,8/4,7/5,6b,,,,,1-5b[57#25:1],1-5-7-3-5[57#11:9],8,2,7,3,6,1,,1,,1,,1,,1,,1,,1,,1,,1,1,1,1,1,1,1,1,Cfh[1:1],,4-1[100#20:1],3,2,,4-8[20:1],,4b,,6v1[4:1],,1-7-4[4:1],,4-1[4:1],,1<5>1[16:6],,5,,1s5[380#22:15],,,,2q8[100#6:1]p2[6:1],,1,,2,,7,,
{16}
1,8v3[100#10:1]*z4b[70#20:1],7,6,5,,,,,,,,,,,,
{8}
2x/5x,3,3/6,4,4/7,5,5/8,6,6/1,7,7/2,8,8/3,1,1/4,,3/4,4/5,5/6,,8-4[100#15:1]/1-5[100#15:1],2/7,3/6,,8<6[10:1]/1>3[10:1],,8-4[10:1]/1-5[10:1],,8b/1b,,B7/B6/E7/C/B2/B3/E3,,
7-2[100#4:1]/2-7[100#4:1],,5/4,,7<1<5[100#2:1]/2>8>4[100#2:1],,,,,,,,,,,,
5x-8x[100#4:1]/4-1[50#16:3],,6,,5,,3,,4/8xz4b[65#20:1],,,,,,,,
1,4/3,1,5/4,1,6/5,1,7/6,1,6/5,1,5/4,1,4/3,1,3/2,2/1,1/8,8/7,,
1-6[10:1]/2-5[10:1],8/3,1b/2b,,7q3[10:1],,7/2p6[10:1],,2/8-4[10:1],,8,,
1-4[300#10:1]/2-4[300#10:1],1/2,,8-5[300#10:1]/7-5[300#10:1],8/7,,,,
4<7[300#10:1]/3>8[300#10:1],4/3,,6<1[300#10:1]/5>2[300#10:1],6/5,,,,
7-4[300#10:1]/3-8[300#10:1],7/3,,8>3[300#10:1]/4<7[300#10:1],4/8,,,,
8-4[135#15:1]/4,6/2-6[135#15:1],,8b,2b,,Chf[4:1],,D1/E1,,D2/E2,,D3/E3,,D4/E4,,D5/E5,E6/D6/
1,1,1,1,1,1,1,
{16}
1,8,2,7,1,8,3,6,1,8,4,5,1-5>5[100#4:1],8,2,7,3,6,4,5,1,,,,,,,,,4x,3x,2x,1xhb[1:1]/5hb[1:1],,,,,,,,,,,,,,,,
{8}
E7,,E3,,E5,,E1,,E8,,E4,,E6,,E2,,B7/B6/E7,,B5/B4/E5,,B2/B3/E3,,Ch[10:1],,
{16}
4w8[28#70:1],4,4,4,4,4,4,4,4,4,4,4,4,4,4,4,4,4,4,4,4,4,4,4,4,4,4,4,4,Cf,,,
{8}
1/2,8/3,7/4,8/7,1/6,5/2,8/1,7/2,6/3,1-5[10:1]/2-6[10:1],8/3,1/2,7/4,8/3,1h[4:1]/2h[4:1],,
{16}
8/7,,8/7,1/6,2/5,,,,4/3,,,,1/2,,,,6/5,,6/5,7/4,8/3,,
{8}
1-6[130#15:1]/2-5[130#15:1],1h[7:1]/2h[7:1],,1/2,,
7b/8b,,4b/3b,,1b/2b,,5b/6b,,8b/1b,,4b/5b,,4b/3b,,5b/6b,,7b/4b,8b/3b,1b/2b,,1b/7b,,8b/2b,,
{16}
8b/1b,7b/2b,6b/3b,,8b<5[120#10:1]/1b>4[120#10:1],,8b/1b,,8b/1b,,8b/1b,,,,,,
{4}
6-1[10:1],6/2-5[10:1],2/8-3[10:1],8/4-7[10:1],4/5-8[10:1],5/1-4[10:1],1/7-2[10:1],7/3,
{16}
B7,B2,B6,B3,E6,E4,5x-1[400#5:1],,
{8}
1<5[5:1],,5>2b[4:1]<7[4:1]<4[4:1]>1[4:1],,2<7[4:1],,7<4[4:1],,4>1[4:1],,,,
3-6[10:1],,3/1-4[10:1],,1/7-2[10:1],,7/1-4[10:1],,8-5[10:1],,1-6[10:1],,8-3[10:1],,,,
2b/4b,7b/5b,8b/1b,
{16}
8b/1b,7b/2b,6b/3b,,
4,5,4,5,4,5bx,
{32}
1,2,3,,,,,,5bx,1,8,7,,,,,5bx,1,2,3,,,,,
{8}
7/2,,Cf,,,,
{16}
E8/B8/B7,B4/B3/E4,B6/B5/E6,B1/B2/E2,E8,E4,E6,E2,E7,E3,B5,B4,B8,B1,B6,B3,B7,B2,E6/B6/B5,B4/B3/E4,Ch[4:1],,,,
{8}
,,,6b-2-8[9:27]*-2-4[8:27],,,,,,,,,,,,,,,,,,,,,,,,,,,,,
8b-4-6-2-4b[4:15],,,,,,,,,,,,,,,,,,,,,,,,,,,,,,,,
3,,3,,4/3,,,,6,,6,,6/5,,,,2,,2,,1/2,,,,7,,7,,7/8,,,,3h[4:1],,4h[8:1],5h[8:3],6h[2:1],,,,
{16}
5,4,3,,3h[4:7],,4,,5,,6,,7,,8,,
{8}
8h[1:2],,,,,,,,1h[1:1],,,,,,,,,,,,,,,
{16}
A1,D2,A2,A8,D8,A7,D3,A3,D4,D7,A6,D6,5xh[5:1]/4xh[5:1],,,,,,
{8}
8-5[10:1],4-1[10:1]pp4[2:1],8,4,,,,,
6x/5x-1[10:1],4x,5/Cf/7-3[10:1],,7/Cf/2-6[10:1],,2/Cf/8-4[10:1],,8/Cf/5-1[10:1],,5/Cf/8<5[10:1],,8/D7f/1>4[10:1],,1/D3f/8-3[10:1],,8/E1f/1-6[10:1],,1/E1f,,
{16}
1,2,3,4,1,2,3,4,
{8}
8>3[10:1],2,8<5[10:1]/A2f,6,8-3[10:1]/A6f,2,8-5[10:1]/B2f,6,8>3[10:1]/B6f,2,8<5[10:1]/A2f,6,8-3[10:1]/A6f,2,8/B2f,,
5-8[10:1]/4-1[10:1],5/4,5/4,,7/2,,7/2,,
{16}
8/1,,8/1,7/2,6/3,,,,4/5,,4,5,4,,,,
{8}
7-3[10:1],3qq8[8:5],7,4h[8:5],,,,,,
4/7-2[10:1],4,4/7,4,4/2-5[10:1],4,4/2,4,4/5-8[10:1],4,4/5,4,4/8-3[10:1],4,4/8,
{16}
4bx,8,7,6,4bx,8,1,2,4bx,4,5,3,5,3,5,3,
6h[10:1]/4h[10:1],,7h[10:1]/5h[10:1],,6h[10:1]/8h[10:1],,7h[10:1]/1h[10:1],,8h[10:1]/2h[10:1],,1h[10:1]/3h[10:1],,2h[4:1]/4h[4:1],,,,
3,4,1,6,5,8,3,4,1,6,5,8,1hb[4:1],,,,8,5,6,1,4,3,8,5,6,1,4,3,8hb[4:1],,,,
3,4,3,6,5,6,3,4,3,6,5,6,3hb[4:1],,,,7,8,7,2,1,2,7,8,7,2,1,2,7hb[4:1],,,,1,8,1,8,1,8,1,8,1,8,1,8,1-5-7-3-5b[4:7],8,1,8,
{8}
1,,,,,,,,,,,,,,C,,
6-1[400#7:1]/5-2[400#7:1],6/5,,3-8[400#7:1]/4-7[400#7:1],3/4,,1/2,8/3,,8/7,1/6,,5-8[10:1]/4-1[10:1],,4/5,,
{16}
2,1,2,1,,8,7,8,7,,1,8,1-5b[10:1],8,1,8,1b/Ch[10:1],
