&title=みむかゥわナイストライ
&artist=ななひら feat. ぬぬぬぬぬぬぬぬぬぬぬぬぬぬぬぬぬぬぬぬぬぬぬぬぬぬぬぬぬぬぬぬぬぬぬぬぬぬぬぬぬぬぬぬぬぬぬぬぬぬぬぬぬぬぬぬぬぬぬぬぬぬぬぬぬぬぬぬぬぬ
&artistid=1007
&des=Muz
&whole_bpm=126
&demo_seek=41.5
&demo_len=15.5
&first=11.55
&shortid=1000007
&genre=niconicoボーカロイド
&genreid=102
&cabinet=DX
&version=maimai DX BUDDiES PLUS
&lv_2=2
&des_2=Muz
&lv_3=7
&des_3=Muz
&lv_4=11+
&des_4=Muz
&lv_5=13
&des_5=Muz
&inote_2=
(126){4}5,{8},,5,,,5x,
,,,,,,,,{2}4,
{8}4,,,4x,
,,,,{2}4x,
5,5,
6,6,
7,7,
{1}8h[2:1],
{2}1,1,
2,2,
3,3,
{1}4h[2:1],
{2}5,6,
7,8,
1,2,
{1}3-6[2:1],
{4}5b,5,{2}5,
{4}6x,6,{2}6,
{4}7x,7,{2}7,
{1}8h[2:1],
{4}1b,1,{2}1,
{4}2x,2,{2}2,
{4}3x,3,{2}3,
{1}4h[2:1],
{8}B5,,,B6,,,,,B4,
,,B3,,,,,B5,
,,B6,,,,,{4}B4,
B5,{2}Cf,
{8}B1,,,B2,,,,,B8,
,,B7,,,,,B1,
,,B2,,,,,{4}B8,
B1,{2}Cf,
B8,B7,
B6,B5,
B4,B3,
B2,B1,
E1,E8,
E7,E6,
E5,E4,
E3,E2,
{8}8x,,,,,,,8x,
,,,,,,,,7x,
,,,,,,7x,
,,,,,,,,6x,
,,,,,,6x,
,,,,,,,,5x,
,,,,,,5x,
,,,,,,,,{2}4,
4,
3,3,
2,2,
{1}1h[2:1],
{2}E1,E2,
E3,E4,
E5,E6,
,,6,
6,
5,5,
4,4,
3,3bh[2:1],
{4},2,,2,
,1,,1,
{1}8xh[2:1],
7-2[2:1],
{4}3b,3,{2}3,
{4}4x,4,{2}4,
{4}5x,5,{2}5,
{1}6h[2:1],
{4}7b,7,{2}7,
{4}8x,8,{2}8,
{4}1x,1,{2}1,
{1}2h[2:1],
{8}B6,,,B5,,,,,B3,
,,B4,,,,,B6,
,,B5,,,,,{4}B5,
B4,{2}Cf,
{8}B2,,,B1,,,,,B7,
,,B8,,,,,B2,
,,B1,,,,,{4}B8,
B1,{2}Cf,
B8,B7,
B6,B5,
B4,B3,
B2,Cf,
1,1,
2,2,
3,3,
{1}4h[2:1],
{2}5,5,
3,3,
{4}2,2,{2}2,
{4}1,1,{2}1,
(90.5){1}8bh[#10.60774],
{2},,,,,,(126)1,
2,
{4}3,3,4,4,
{1}5bw1[2:3],
E
&inote_3=
(126){4}5xh[8:1],{8}6,6,4,4,5x,5xh[8:1],
,4,4,6,{2}6-2[8:1],
{4}4xh[8:1],{8}3,3,5,5,4x,4b,
,3b/5b,5b/3b,5b/3b,{4}5b/3b,4,
6/5h[4:1],7h[4:1],5h[4:1],6,
6h[4:1],5h[4:1],7h[4:1],5,
3/4h[4:1],2h[4:1],4h[4:1],3,
{8}2,1,2,1,{4}2,1,
7/8h[4:1],6h[4:1],7,7x,
6/8,6x,7/5,5x,
3/4h[4:1],2h[4:1],3,2,
{8}4,3,4,3,{4}4,5x,
6h[4:1],4h[4:1],5h[4:1],3h[4:1],
6h[4:1],4h[4:1],5h[4:1],3h[4:1],
6h[4:1],5h[4:1],4h[4:1],{8}3x,3x,
{4}E4,E5,{2}E6,
{8}8b/7b,8b/7b,{4}7b/8b,{8}5,6,{4}5,
{8}4xh[8:1],5xh[8:1],{4}4xh[8:1],{8}5,3,{4}5,
{8}4x,4x,{4}4x,{2}3-7[8:1],
{4}8,1,{2}2h[4:1],
{8}8b/7b,8b/7b,{4}8b/7b,{8}1,8,{4}1,
{8}8xh[8:1],1xh[8:1],{4}8xh[8:1],{8}2,1,{4}2,
{8}3x,3x,{4}3x,{2}2-6[8:1],
{8}7,7,8,8,{2}1x-5b[8:1],
{4}6h[4:1],{8}5,6h[4:1],,5,{4}5,
3h[4:1],{8}4,3h[4:1],,4,{4}4,
6h[4:1],{8}5,6h[4:1],,5,{4}5,
B2/B3/E3,B7/E7/B6,{8}B5,E5,{4}B4,
3h[4:1],{8}4,3h[4:1],,4,{4}4,
6h[4:1],{8}5,6h[4:1],,5,{4}5,
3h[4:1],{8}4,3h[4:1],,4,{4}4b,
{8}5,5,6,6,{2}7/8-3[8:1],
{16}4,,,4,,,{8}4,,5,{4}5,
{16}3,,,3,,,{8}3,,4,{4}4,
{16}2,,,2,,,{8}2,,3,{4}3,
{16}1,,,1,,,{8}1,3x,3x,{4}3x,
{16}5,,,5,,,{8}5,,4,{4}4,
{16}6,,,6,,,{8}6,,5,{4}5,
{16}7,,,7,,,{8}7,,6,{4}6,
{16}8,,,8,,,{8}8,,7,{4}7,
8xh[8:1],{8}7,7,1,1,8x,8xh[8:1],
,1,1,7,{2}7-3[8:1],
{4}1xh[8:1],{8}2,2,8,8,1x,1xh[8:1],
,2,2,8<5[4:1],,,,,{4}4xh[8:1],
{8}3,3,5,5x,4x,4xh[8:1],
,3,3x,5x,5x,4x,{4}4x,
{1}Cfh[8:7],
{8},B7,B8,B1,{4}B2,Cf,
5,5,6,6,
7,7,8,8,
1,1,2,2b,
E4,B4,B5,E6,
{8}B7,B8,B1,B2,B3,B4,B5,B6,
B7,B8,B1,B2,B3,B4,B5,B6,
B7,B8,B1,B2,B3,B4,B5,B6,
,,,,,,{4}Cf,
4xh[4:1],5h[4:1],{8}7,7,{4}6b,
4h[4:1],5h[4:1],{8}7,7,{4}6b,
5h[4:1],4h[4:1],{8}2,2,{4}3b,
4,{8}5,4,{2}3bh[2:1],
{4}5,5b,6,6b,
7,7b,8,8b,
1b,2b,3b,4bh[4:1],
E6,E5,E4,Cf,
{8}8b/7b,8b/7b,{4}7b/8b,{8}5,6,{4}5,
{8}4xh[8:1],5xh[8:1],{4}4xh[8:1],{8}5,3,{4}5,
{8}4x,4x,{4}4x,{2}3-7[8:1],
{4}8,1,{2}2h[4:1],
{8}8b/7b,8b/7b,{4}8b/7b,{8}1,8,{4}1,
{8}8xh[8:1],1xh[8:1],{4}8xh[8:1],{8}2,1,{4}2,
{8}3x,3x,{4}3x,{2}2-6[8:1],
{8}7,7,8,8,{2}1x-5b[8:1],
{4}6h[4:1],{8}5,6h[4:1],,5,{4}5,
3h[4:1],{8}4,3h[4:1],,4,{4}4,
6h[4:1],{8}5,6h[4:1],,5,{4}5,
B2/B3/E3,B7/E7/B6,{8}B5,E5,{4}B4,
3h[4:1],{8}4,3h[4:1],,4,{4}4,
6h[4:1],{8}5,6h[4:1],,5,{4}5,
3h[4:1],{8}4,3h[4:1],,4,{4}4b,
{8}5,5,6,6,{2}7/8-3[8:1],
{4}5h[4:1],{8}4,6h[4:1],,4,{4}5,
4h[4:1],{8}5,3h[4:1],,5,{4}4,
5h[4:1],{8}4,6h[4:1],,4,{4}5b,
{8}3,3,2,2,{2}1-6[8:1],
{16}5,,,5,,,{8}5,,4,{4}4,
{16}6,,,6,,,{8}6,,5,{4}5,
{16}7,,,7,,,{8}7,,6,{4}6,
{16}8,,,8,,,{8}8,6x,6x,{4}6x,
4h[4:1],5,3h[4:1],5,
{8}4,5,4,5,{4}4h[4:1],6,
5/7,6/4,5/3,4/2,
3/5,6/2,{8}7,1,7,1,
(90.5){1}8bh[#10.60774],
,,,(126){8}1,
8,1,8,2,7,{4}2h[4:1],
{8}6,6,3,3,5,4,{4}5,
{1}5bw1[2:3],
E
&inote_4=
(126){4}5xh[8:1],{8}6/4,6,5,4,5x,5xh[8:1],
,6/4,4,5,{2}4/6-2[8:1],
{4}4xh[8:1],{8}3/5,3,4,5,4x,4b/6b,
,5b/3b,5b/3b,6b/4b,4b/6b,5xh[8:1],{4}4xh[8:1],
{16}6,5,{8}6,5/7,{16}6,5,,6,5,6,{8}5,7x/8x,
{16}8,7,,8,7,8,{8}7,8/6,{16}8,7,{8}8,2x/1x,
{16}1,2,1,2,,1,{8}2,{16}3,4,3,4,{8}3,4x/3x,
1h[8:1],2h[8:1],3h[8:1],4h[8:1],{2}3v6[8:1],
{8}5,{16}6,5,6,5,{8}6,{16}5h[4:1],6,,,{8}6,{16}7,6,
7h[16:3],,,6,{4}7,{16}8h[16:3],,,7,{4}8,
{8}1/2,{16}1,2,1,2,{8}1,{16}4,3,,4,{8}3,2h[8:1],
3h[8:1],4h[8:1],3h[8:1],2h[8:1],{2}4w8[8:1],
{4}1h[8:1],8h[8:1],1h[8:1],8h[8:1],
{8}2,2,7,7,2,2,7,7,
{16}3x,6x,{8}3x,{4}6h[8:1],3h[8:1],{8}5b/4b,5b/4b,
E4,B4,E5,B5,{2}E6,
{8}8b/7b,8b/7b,7b/8b,6,{16}5,6,5,6,{8}5h[8:1],6h[8:1],
2xh[8:1],1xh[8:1],2xh[8:1],1,{16}3,4,3,4,{8}3h[8:1],4h[8:1],
8xh[16:1],8xh[16:1],8xh[16:1],{16}7,8,7v5[8:1],8,,,,,,,4,
4,6,6,3,3,7,7,{2}1v6[8:1],
{8}8b/7b,8b/7b,7b/8b,6,{16}5,6,5,6,{8}5h[8:1],6h[8:1],
2xh[8:1],1xh[8:1],2xh[8:1],1,{16}3,4,3,4,{8}3h[8:1],4h[8:1],
8xh[16:1],8xh[16:1],8xh[16:1],{16}7,8,7-3[8:1],8,,,,,,,{8}1/2,
8/7,{16}5,4,{8}5,6/4b>1b[8:1],5,{16},,,,8/7,
,,7,{8}8,8/7,7-3[8:1],8,{16},,,,1/2,
,,2,{8}1,1/2,2-6[8:1],1,{16},,,,8/7,
,,7,{8}8,8/7,7-3[8:1],8,,,1/2,
2/1,8/7,8/7,E7/E3,B6/B3,{4}E6f/E4f,
{16}1/2,,,2,{8}1,1/2,2-6[8:1],1,{16},,,,8/7,
,,7,{8}8,8/7,7-3[8:1],8,{16},,,,1/2,
,,2,{8}1,1/2,2-6b[8:1],1,,,5/4,
5/4,6/3,3/6,{4}7-3[8:1]/2-6[8:1],Cf,
{16}5h[16:3],,,6h[16:3],,,{8}7,,6,7,8,
{16}1h[16:3],,,2h[16:3],,,{8}3,,2,3,4,
{16}5h[16:3],,,6h[16:3],,,{8}7,,6,7,8,
{16}1h[16:3],,,2h[16:3],,,{8}3,3x,4x,{4}4x,
{16}5h[16:3],,,6h[16:3],,,{8}7,,6,7,8,
{16}1h[16:3],,,2h[16:3],,,{8}3,,2,3,4,
{16}5h[16:3],,,6h[16:3],,,{8}7,,6,7,8,
{16}1h[16:3],,,2h[16:3],,,{8}3,,2,3,4,
{4}5xh[8:1],{8}6/4,6,5,4,5x,5xh[8:1],
,6/4,4,5,{2}4/6-2[8:1],
{4}4xh[8:1],{8}3/5,3,4,5,4x,4xh[8:1],
,3/5,3>6[8:3],4,,,,,{4}5xh[8:1],
{8}6/4,6,5x,4x,5x,5xh[8:1],
,4/6,4x,6xh[8:1],5xh[8:1],6xh[8:1],{4}5x,
{24},5x,,,{6}5xh[8:1],{12},4x,{16}5x,4x,6x,4x,7x,4x,{8}4bx/6bx,
,5b/3b,5b/3b,6b/4b,{4}6b-2[8:1]/5b-1[8:1],Cf,
{8}8,8,7,7,6,6,{4}5h[8:1],
{8}4,4,3,3,2,2,{4}1h[8:1],
{8}8/7,7,1/2,2,1/8,2/7,{4}5b/4b,
{8}E6,B5,E5,B4,{4}E4,E5,
{8}5xh[16:1],5h[16:1],6xh[16:1],6xh[16:1],7xh[16:1],7xh[16:1],8xh[16:1],8xh[16:1],
1xh[16:1],1h[16:1],2xh[16:1],2xh[16:1],3xh[16:1],3xh[16:1],4xh[16:1],4xh[16:1],
5xh[16:1],5h[16:1],6xh[16:1],6xh[16:1],7xh[16:1],7xh[16:1],8xh[16:1],8xh[16:1],
{4}1pp4[2:1],{8},,,,5b,5,
6/4,4,5,5,3,3,6b,6,
5/7,5,4,4,3,3,6b,5,
4/6,6,4,4,5,5,3b,4,
{16}5,4,5,4,{8}5,4,{16}3bx,3bx,3bx,3bx,3bx,3bx,3bx,3bx,
{8}3x,{16}5,4,{8}6b,6,5/7,6,7b,7,
8,{16}7,6,{8}8b,8,7/1,8,1b,{16}1,3,
{4}2b,3b,{8}4b,5b,{16}6b,6b,6b,6b,
{8}E6,B5,E5,B4,{4}E4,Cf,
{8}8b/7b,8b/7b,7b/8b,6,{16}5,6,5,6,{8}5h[8:1],6h[8:1],
2xh[8:1],1xh[8:1],2xh[8:1],1,{16}3,4,3,4,{8}3h[8:1],4h[8:1],
8xh[16:1],8xh[16:1],8xh[16:1],{16}7,8,7v5[8:1],8,,,,,,,4,
4,6,6,3,3,7,7,{2}1v6[8:1],
{8}8b/7b,8b/7b,7b/8b,6,{16}5,6,5,6,{8}5h[8:1],6h[8:1],
2xh[8:1],1xh[8:1],2xh[8:1],1,{16}3,4,3,4,{8}3h[8:1],4h[8:1],
8xh[16:1],8xh[16:1],8xh[16:1],{16}7,8,7-3[8:1],8,,,,,,,{8}1/2,
8/7,{16}4,5,{8}4,3/5b<8b[8:1],4,{16},,,,5/6,
,,6,{8}5,5/6,6-2[8:1],5,{16},,,,4/3,
,,3,{8}4,4/3,3-7[8:1],4,{16},,,,5/6,
,,6,{8}5,5/6,6-2[8:1],5,,,4/3,
3/4,5/6,5/6,E7/E3,B6/B3,{4}E6f/E4f,
{16}4/3,,,3,{8}4,4/3,3-7[8:1],4,{16},,,,5/6,
,,6,{8}5,5/6,6-2[8:1],5,{16},,,,4/3,
,,3,{8}4,4/3,3-7b[8:1],4,,,6b/5b,
7b/8b,1b/2b,3b/4b,{16}5b/6b,5x,,,,,,,{4}5h[4:1],
{8}B5,6h[4:1],,B6,{4}7,
4h[4:1],{8}B4,3h[4:1],,B3,{4}2,
1h[4:1],{8}B1,8h[4:1],,B8,{4}Cf/B7/E7/B6/B2/E3/B3,
{8}E4,B4,E5,B5,{4}E6,Cf,
{16}5h[16:3],,,4h[16:3],,,{8}3,,5,4,3,
{16}4h[16:3],,,5h[16:3],,,{8}6,,4,5,6,
{16}5h[16:3],,,4h[16:3],,,{8}3,,5,4,3,
{16}4h[16:3],,,5h[16:3],,,{8}6,6x,5x,{4}5x,
{12}4x,3x,4x,3xh[8:1],,,5x,6x,5x,6xh[8:1],{24},{8}4,
{16}3,4,3,4,2,5,2,5,1,6,1,6,{4}8/7,
{8}6/2,1,6/3,1,6/4,1,5/6,1,
{16}3,4,3,4,2,5,2,5,1,6,1,6,8,7,{8}8,
(90.5){1}B8/B7/E7/E1/A8/A7/E8f,
,,,(126){16}5h[16:3],
,,4,{8}6h[8:1],3,5/4,6h[8:1],4h[8:1],5,
6/4,6/4,5/3,3/5,{16}4,6,3,7,2,8,,,{1}5bw1[2:3],
E
&inote_5=
(126){4}5xh[8:1],{8}4,4,6/5,{24}6,5,6,{8}4xh[8:1],5xh[8:1],
,4,4,{24}5,6,5,{2}6-2[16:1],
{4}4xh[8:1],{8}5,5,3/4,{24}3,4,3,{8}5x,6b/2b,
,4b/8b,7b/3b,6b/2b,5b/1b,8xh[8:1],{4}7xh[8:1],
{16}5,6,5,6,5,7,5,7h[8:1],,6,7,5,{8}6,{16}8,8,
7,7h[8:1],,6,5,5,6,6,7,7,8,8,{8}1b,1h[16:1],
{16}4,2,4,2,4,3,{8}4h[8:1],{16}3,3,2,2,{8}1h[8:1],2,
4h[8:1],3h[8:1],2,{24}1,2,1,{4}3bx,{8}4x,6h[8:1],
5h[8:1],{16}6,6,5,5,7,7,5/6v7[8:1],5,,,{8}6/5,{16}5,6,
5v8[8:1],,,6,{4}5/6,{16}5V38[8:1],,,6,{4}6/5,
{8}4/3,{16}4,4,3,3,2,2,1,4x,,4x,{8}1,2h[8:1],
3h[8:1],4h[8:1],3,{24}4,3,4,{4}2bx,1x,
{8}8/7,8,8/6,8,5/8,8,8/4,{24}7,6,5,
{8}4/8,4,4/7,4,4/6,4,4/5,{24}3,2,1,
{8}8/4,8,8/5,8,6/8,{24}7,6,5,{8}4b/8b,2b/6b,
B2,B8,B4,B6,{4}5pp5[16:3]*qq5[16:3],E6/B5/E5,
{8}8b/7b,6b/1b,5b/2b,{16}4,4,3,3,4V68[8:1],4,{8}3,4/2,
1xh[8:1],2xh[8:1],3xh[8:1],{16}4,4,6,6,5V31[8:1],5,{8}6v3v6<1b[8:3],5/6,
{16},,,,,,2,3,4w8[16:1],5,{8}6,4b/Cf,{16}A2,A6,
A3,A5,B3,B5,B2,B6,B1,B7,{4}Ch[4:1],,
{8}7b/8b,1b/2b,3b/4b,{16}5,5,6,6,5V31[8:1],5,{8}6,5/7,
8xh[8:1],7xh[8:1],6xh[8:1],{16}5,5,3,3,4V68[8:1],4,{8}3>8>3v6b[8:3],4/3,
,,,7xh[8:1],{16},2xh[8:1],,,8b,1b,{8}8b,
6/5,4/3,{16}8x/1x,7x/2x,{8}6x/3x,E7/B7/B6/B2/B3/E3,A7/D7/A6/A2/D3/A3,{4}Cf,
{8}6/5,{16}6,5,{8}6,8/7,6/5v8[8:1],{16}5,6,{4}5,
{8}3/4,{16}3,4,{8}3,1/2,3/4q1[8:1],{16}4,3,{4}4,
{8}6/5,{16}6,5,{8}6,8/7,6/5>1[8:1],{16}5,6,{8}5,{16}6x,6x,
{8}7/8V25[8:1],5/6v4[12:1],8x,6x,E6/A6/E7/E4/A3/E3,E6/A6/E7/E4/A3/E3,{4}E6/E7/E3/E4/A3f/A6f,
{8}4/3,{16}3,4,{8}3,2/1,3/4v1[8:1],{16}4,3,{4}4,
{8}6/5,{16}6,5,{8}6,8/7,6/5p8[8:1],{16}5,6,{4}5,
{8}3/4,{16}3,4,{8}3,1/2,{16}4xV68b[8:1]*V28b[8:1],3x,{8}4x,{4}4b,
{8}7/1,7/1,5/3,5/3,{4}2/6-2[16:1],6b/Cf,
{16}5h[16:3],,,6h[16:3],,,{8}7,,6h[8:1],7h[8:1],8h[8:1],
{16}4h[16:3],,,3h[16:3],,,{8}2,,3h[8:1],2h[8:1],1h[8:1],
{16}5h[16:3],,,6h[16:3],,,{8}7,,6h[8:1],7h[8:1],8h[8:1],
{16}4h[16:3],,,3h[16:3],,,{8}2,1x>4[8:1],8,{4}1,
{16}5h[16:3],,,6h[16:3],,,{8}7,,6h[8:1],7h[8:1],8h[8:1],
{16}4h[16:3],,,3h[16:3],,,{8}2,,3h[8:1],2h[8:1],1h[8:1],
{16}5h[16:3],,,6h[16:3],,,{8}7,,6h[8:1],7h[8:1],8h[8:1],
{16}4h[16:3],,,3h[16:3],,,{8}2,,3h[8:1],2h[8:1],1h[8:1],
{4}8xh[8:1],{8}1,1,7/8,{24}7,8,7,{8}1xh[8:1],8xh[8:1],
,1,1,{24}8,7,8,{2}7-3[16:1],
{4}1xh[8:1],{8}8,8,2/1,{24}2,1,2,{8}8xh[8:1],1xh[8:1],
7,6,5<3[8:3],4,,,,,{4}4xh[8:1],
{8}5,5,4x,4xh[8:1],6,6h[8:1],
3,3,5x,5xh[8:1],3xh[8:1],4xh[8:1],{4}2x,
{24},5x,,,{6}5xh[8:1],{12},4x,4x,5x,5x,{48}3x,,,3x,,,{8}2b/6b,
,4b/8b,7b/3b,6b/2b,{4}1bv4[16:1]/5b-8[16:1],5b/1b,
C/E1,C/E2,C/E3,C/E4,
C/E5,C/E6,C/E7,C/E8,
A1/B1/C,B3/A3/C,B5/A5/C,B7/A7/Cf,
{8}B2,B4,B8,B6,{4}C,C,
{16}5x,5,6,6,7x,7,8x,8,1x,1,2x,2,3x,3,4x,4,
5x,5,6,6,7x,7,8x,8,1x,1,2x,2,3x,3,4x,4,
5x,5,4,4,6x,6,3x,3,7x,7,2x,2,8x,8,1x,1,
,,{8}E1/E2/B1,{16},B2,B8,B4,B6,C,{64},,,,,,,,A1/B1,Cf,{32}B5/A5,,,{8}6,
4,4,5,5,4,4,6b,5,
3,3,4,4,3,3,6b,{24}4,5,4,
{8}5,5,4,4,5,5,3b,4,
{16}6,4,6,4,{8}5,5,{32}3bx,3bx,3bx,3bx,3bx,3bx,3bx,3bx,3bx,3bx,3bx,3bx,3bx,3bx,3bx,3bx,
{8}3x,{16}5,4,{8}6b,6,7/5,5,7b,7,
5,{16}7,6,{8}8b,8,7/1,7,1b,{24}8,1,8,
{4}2b,3b,{8}4b,5b,{16}6b,6b,6b,6b,
{8}B5,B7,B3,B1,{4}4w8[16:1],4b/Cf,
{8}8b/7b,6b/1b,5b/2b,{16}4,4,3,3,4<8[8:1],4,{8}3,4/2,
1xh[8:1],2xh[8:1],3xh[8:1],{16}4,4,6,6,5>1[8:1],5,{8}6q3p6<1b[8:3],5/6,
{16},,,,,,2,3,4w8[16:1],5,{8}6,4b/Cf,{16}A2,A6,
A3,A5,B3,B5,B2,B6,B1,B7,{2}Ch[4:1],
{8}8b/7b,6b/5b,4b/3b,{16}1,1,2,2,1<5[8:1],1,{8}2,1/3,
4xh[8:1],3xh[8:1],2xh[8:1],{16}1,1,7,7,8>4[8:1],8,{8}7q4p7>2b[8:3],8/7,
,,,3xh[8:1],{16},6xh[8:1],,,4b,5b,{8}4b,
2/1,8/7,{16}4x/5x,3x/6x,{8}2x/7x,B7/E7/B6/B2/E3/B3,A7/A6/A2/A3/D7/D3,{4}Cf,
{8}6/5,{16}7,6,{8}5,8/7,6/5v8[8:1],{16}7,6,{4}5,
{8}3/4,{16}2,3,{8}4,1/2,3/4q1[8:1],{16}2,3,{4}4,
{8}6/5,{16}7,6,{8}5,8/7,6/5>1[8:1],{16}7,6,{8}5,{16}6x,6x,
{8}7/8V25[8:1],5/6v4[12:1],8x,6x,E7/A6/E6/E3/A3/E4,E7/A6/E6/E3/A3/E4,{4}E7/E6/E3/E4/A6f/A3f,
{8}3/4,{16}2,3,{8}4,1/2,3/4v1[8:1],{16}2,3,{4}4,
{8}6/5,{16}7,6,{8}5,8/7,6/5p8[8:1],{16}7,6,{4}5,
{8}3/4,{16}2,3,{8}4,4/2,{16}1xV36[16:3]/5xV72[16:3],2x/6x,{8}3x/7x,{4}5x/1x,
{8}5b/1b,8b/4b,7b/3b,2b/6b,{4}1b/5bpp5[16:3]*qq5[16:3],E6/B5/E5,
4h[8:1],{8}4,3,3>8[8:1],4,,,{4}5h[8:1],
{8}5,6,6<1[8:1],5,,,{4}4h[8:1],
{8}5,4,3V15b[6:1]/6V84b[6:1],5/4,{4}3b/6b,
{8}B6,B2,B8,B4,{4}6-2[16:1],6b/Cf,
{16}5h[16:3],,,6h[16:3],,,{8}7,,6h[8:1],7h[8:1],8h[8:1],
{16}4h[16:3],,,3h[16:3],,,{8}2,,3h[8:1],2h[8:1],1h[8:1],
{16}5h[16:3],,,6h[16:3],,,{8}7,,6h[8:1],7h[8:1],8h[8:1],
{16}4h[16:3],,,3,,,{8}3qq4[4:1]/5pp4[4:1],{2}4x,
{12}4x,4x,4x,1/7,{24},{8}6,{12}5x,5x,5x,8/2,{24},{8}3,
{16}5,4,6,3,7,2,8,1,7,2,6,3,{8}5,{24}4,5,4,
{8}6-8[16:1],5,6/4-2[16:1],5,4/6<8[16:1],5,6/4>2[16:1],5,
4/6,{16}5,5,{8}6h[16:1]/2h[16:1],2h[16:1],1h[16:1]/5h[16:1],5h[16:1],{16}8/6,6/8,{8}8/6,
(90.5){1}E8/B7f/E7/B6/B8/A8/A6/7x-3b[14.4173##0.119],
,,,(126){16}5h[16:3],
,,4,{8}6h[8:1],5,6/4,5h[8:1],4h[8:1],6,
4/2,4/2,5/1,1/5,{16}4/2,4/2,5/1,5/1,6/8,6/8,,,{1}Cf/B7/B3/7b<8[2:3],
E
