&title=Shizuku (ft. NEONA & KOTONOHOUSE)
&artist=PIKASONIC & Tatsunoshin
&first=0
&des=尘落南丘
&clock_count=4
&lv_5=13+
&inote_5=(160){1},
{4},,
{8}6,5,4,3,
{4}2h[1:1]/6,,,3,4h[1:1],,,5,6h[1:1],,,7,8h[1:1],,,1,
{8}2^5[8:1],,1,8h[8:3],,,C,,7^4[8:1],,8,1h[8:3],,,C,,4^7[8:1],,3,2h[8:3],,,C,,
{4}7-4[8:1],1-6[8:1],3-8[8:1],,
{8}7h[4:1],,1^6[8:1],,1x/3x,,{16}3,5,4,6h[16:1],
{8},,2/8^3[8:1],,8x/6x,,{16}6,4,5,3h[16:1],
{8},,7/1-5[8:1],,1x/3x,,4,7,{16}5,6,5,6,4,,4,,73,,73,,26,,26,,
{8}5h[4:1],,4^1[8:1],,4x/6x,,{16}6,8,7,1h[16:1],
{8},,2/5^8[8:1],,5x/3x,,{16}3,1,2,8h[16:1],
{8},,2/8-4[8:1],,8x/6x,,5,2,{16}4,3,4,3,5,,5,,26,,26,,7-4[8:1]/3-8[8:1],,73,,
{1}7bx>3[2:1]/3xb<7[2:1]`Cf,
{4}4,4,4/B7,4/E8,5,5,5/B2,5/E2,3,34,35,36,
{4}7x-4[2:1]/2,2,2,2,1x-6[2:1]/4,4,4,4,48,15,26,37,4h[4:1]/6,5h[4:1],6-2[8:1],8b`Cf,
{4}3,4h[4:1],5-2[4:1],6,7,8h[4:1],1-6[4:1],2,
{4}3,45,3qq2[8:3]/6qq7[8:3],3x/6x,,83,8/4-8[8:1],47,
{8}17,17,28,28,42,42,57,57,
{16}6,4,7,,3,5,2,,6,5,7,,3,4,2,,
{32}7x/3x,6x,5x,4x,3x,2x,1x,8x,7x,6x,5x,4x,3x,2x,1x,8x,7x/3x,4,5,6,7,8,1,2,
{32}3p6[4:1],4,5,6,7,8,1,2,
{4}3bx/6x<3[4:1]*<8[10:1]*<1[20:3]*<2[5:1],,,3b-7[8:1]/7b-4[8:1],
{8}3/7>5[4:1],,5v2[8:1],6,C,7,16,1-7[8:1]/6-2[8:1],,16,,48,51,26,3b-6[8:1]/7b-2[8:1],,
{8}3>5[4:1]/7,,5v8[8:1],4,C,2-8[8:1],,,6h[4:1],8,5h[4:1],8,6h[8:1],8,6-2[8:1]/2-5[8:1],,
{8}6/2<4[4:1],,4v7[8:1],3,C,2,83,8-2[8:1]/3-7[8:1],,83,,51,48,73,6b-3[8:1]/2b-7[8:1],,
{8}6<4[4:1]/2,,4v1[8:1],5,C,7-1[8:1],,,3h[4:1],1,4h[4:1],1,3h[8:1],1,3-7[8:1]/7-4[8:1],,
{8}3/7V13-5[4:1],,5v2[8:1],6,C,7,16,1-6[8:1]/6-2[8:1],,16,,48,51,26,3b-8[8:1]/7b-4[8:1],,
{8}7>5[4:1]/3,,5v2[8:1],6,C,7-1[8:1],,,3h[4:1],1,4h[4:1],1,3h[8:1],1,6-2[8:1]/2-5[8:1],,
{8}6/2V86-4[4:1],,4v7[8:1],3,C,2,83,8-3[8:1]/3-7[8:1],,83,,51,48,73,6b-1[8:1]/2b-5[8:1],,
{8}2<4[4:1]/6,,4v7[8:1],3,C,2-8[8:1],,,6h[4:1],8,5h[4:1],8,6h[8:1],8,
{8}7x/3xp1[8:3],6,5h[4:1],,,6,Ch[8:1],,
{8}2x/6xq8[8:3],3,4h[8:1],,3,3,Ch[8:1],,
{8}7x/3xq7>2[8:3],6,5h[4:1],,,6,Ch[8:1],,
{8}2x/6xp2<7[8:3],3,4h[8:1],,3,3,Ch[8:1],,
{8}7x-1[8:1]/3x-5[8:1],2,37,,4h[8:1]/8^5[8:1],,Ch[8:1],,
{8}1xpp2[4:1]/5x,6,1/7h[8:1],,6,5h[4:1],Ch[8:1],,
{8}2x-8[8:1]/6x-4[8:1],7,62,,5h[8:1]/1^4[8:1],,Ch[8:1],,
{8}8xqq7[4:1]/4x,3,8/2h[8:1],,3,4h[4:1],Ch[8:1],,
{8}3xv6[8:1]/7x,,3/6q2[8:1],5h[8:1],,7h[4:1],Ch[8:1],,
{8}3xv6[8:1]*v6[8:1]/7x,,3/6q2[8:1]*q2[8:1],5h[8:1],,7h[4:1],Ch[8:1],,
{8}2xv5[8:1]/6x,,2/5q1[8:1],4h[8:1],,6h[4:1],Ch[8:1],,
{8}3xq5[8:3]/7x,,3/5,6,7,8h[4:1],Ch[8:1],,
{8}6xv3[8:1]/2x,,6/3p7[8:1],4h[8:1],,2h[4:1],Ch[8:1],,
{8}6xv3[8:1]*v3[8:1]/2x,,6/3p7[8:1]*p7[8:1],4h[8:1],,2h[4:1],Ch[8:1],,
{8}7x/4x,6^4[4:1],,4^2[4:1]*^2[4:1],,2^8[4:1],,8^6[4:1]*^6[4:1],,C,,,
{4}4h[4:1],3h[4:1],2,
{1}8bx-4[2:5]`1x-5[2:5]*-5[2:5],,,
{8}3h[4:1]/6h[4:1],,,27,,18,
{4}7qq1[2:1],2,,,2pp8[2:1]*pp8[2:1],7,,,
{4}5xpp1[4:3]`1xpp5[4:3]*xpp5[4:3],,,,
{8},84,,73,,,62,,5b/1b,,
{4}6,5h[4:1],4^7[4:1],3,2,1h[4:1],8^3[4:1],7,
{4}6,54,6pp7[8:3]/3pp2[8:3],6x/3x,,16,1/5-1[8:1],52,
{8}82,82,71,71,57,57,42,42,
{16}3,5,2,,6,4,7,,3,4,2,,6,5,7,,
{32}26,3,4,5,6,7,8,1,2,3,4,5,6,7,8,1,26,5,4,3,2,1,8,7,6pp1^6[4:3],5,4,3,2,1,8,7,
{1}6bx/3h[4:3],
{16}5h[16:3]/2h[96:1],,,3h[16:3],,,2h[16:2],,4h[16:3],,,6h[16:3],,,4h[96:1],7h[96:1],
{16}1h[16:3],,,7h[16:3],,,6h[16:2],,8h[16:3],,,2h[16:3],,,8h[96:1],3h[96:1],
{16}6h[16:3],,,3h[16:3],,,2h[16:2],,4h[16:3],,,6h[16:3],,,1h[96:1],,
{16}2h[16:1]/8h[16:1],,,2h[16:1]/8h[16:1],,,3h[96:1],,4h[16:3]/7h[96:1],,,6h[16:3],,,2h[96:1],,
{16}4h[16:3]/7h[96:1],,,6h[16:3],,,7h[16:2],,5h[16:3],,,3h[16:3],,,5h[96:1],2h[96:1],
{16}8h[16:3],,,2h[16:3],,,3h[16:2],,1h[16:3],,,7h[16:3],,,1h[96:1],6h[96:1],
{16}3h[16:3],,,6h[16:3],,,7h[16:2],,5h[16:3],,,3h[16:3],,,8h[96:1],,
{16}7h[16:1]/1h[16:1],,,7h[16:1]/1h[16:1],,,2h[96:1],4h[96:1],3h[96:1],,,8h[16:1],,,7h[96:1],5h[96:1],
{4}6xh[8:1],6h[8:1]/B3,6h[8:1]/B2,6h[8:1]/E2,3xh[8:1],3h[8:1]/B6,3h[8:1]/B7,3h[8:1]/E8,
{4}7xh[8:1],7h[8:1]/B2,7h[8:1]/B3,7h[8:1]/E4,2xh[8:1],2h[8:1]/B7,2h[8:1]/B6,2h[8:1]/E6,
{16}6,5,7,,68,,68,,1,8,2,,53,,53,,
{16}4,6,5,7,4,6,3,5,4,6,5,8,4,6,2,5,
{16}3,5,4,4,6,3,4,4,2,5,4,4,{32}7-3[8:1],6,5,4,1,2,3,4,
{16}7b,,,,48,51,62,,3-8[8:1]/7-4[8:1],,37,,3b/7b`Cf,,,,
{8}1-7[8:1]/5,,5^2[8:1]/1,6,5-7b[8:1]/1-5b[8:1],1,1x/5x,,
{8}8-2[8:1]/4,8,4^7[8:1]/8,3,4/8-4b[8:1],8,8x/4x,,
{8}5^3[8:1]/1,,1-6[8:1]/5,2,1-3b[8:1]/5-1b[8:1],5,5x/1x,,
{8}4^6[8:1]/8,4,8-3[8:1]/4,7,8-6b[8:1]/4-8b[8:1],4,4x/8x,,
{8}2-8[8:1]/6,,6^3[8:1]/2,7,6-1b[8:1]/2-5b[8:1],2,2x/6x,,
{8}7-1[8:1]/3,7,3^6[8:1]/7,2,3-8b[8:1]/7-4b[8:1],7,7x/3x,,
{8}6-3[8:1]/2,,2-7[8:1]/6,1,2/6,5,4-7[8:1]/8-3[8:1],,
{16}4b/8b,,,,4x-6[8:1]/8x-2[8:1],,37,,4b/8b,,,1x/5x,84,73,62,15,
{8}8b-2[8:1]/4b,,4-7[8:1]/8,5,8-3[8:1]/4,1,4-6[8:1]/8,5,
{8}8-2[8:1]/4,1,4-7[8:1]/8,5,8-3[8:1]/4-8[8:1],1,4/8,,
{8}7b-5[8:1]/3b,,3-8[8:1]/7,2,7-4[8:1]/3,6,3-1[8:1]/7,2,
{8}7-5[8:1]/3,6,3-8[8:1]/7,2,7-4[8:1]/3-7[8:1],6,3/7,,
{16}5,8,6,,1,4,2,,6,1,7,,3,8,2,,
{16}5,1,6,6,4,8,3,3,6,1,7,7,3,8,2,2,
{32}7,6,5,4,1,2,3,4,8,7,6,5,2,3,4,5,7,6,5,4,1,2,3,4,8-4[8:1],7,6,5,2,3,4,5,
{16}8b,,,,51,62,73,,4b/8b,,3b/7b,,6b-3[8:1]/2b-7[8:1],,,,
{1}B7/B1/B4/B6/B2`Cf,,E
