&title=アイ・アイ・ア (AiAiA)
&artist=Ado x Kikuo
&first=0
&des=Hoshifukuro
&lv_5=14
&inote_1=(138){4},{24},,,,,,,,,,,,,,,,,3xh[24:1],
{4},,{32}1x,A1,,,,,,,,,,,,,,,{2}7xh[16:1],
{32}D3,A3,,,,,,,,,,,,,
{16}7xv2<1-6pp8[0.2174##2.5],
{1}5xv2>3-6qq4[0.1087##2.5],
{8},,,,,,,,3,
B3,5,B5,4,{16}B4,6xh[16:3],{48},,,,,,{24}4,3,2,
{8}1xh[16:1],1,7,7,5,{16}5,4xh[16:3],{48},,,,,,{24}5,6,7,
{8}8x,B8,2,B2,7,{16}B7,1xh[16:3],{48},,,,,,{24}8,7,6,
{8}5xh[16:1],5,3,3,{16}1<5[4:1],2,8,1,,,,,{8}1,
{16}7,7,{8}6h[8:1],5h[8:1],{16},4-8[4:1],{8}4h[8:1],2,{24}7,6,5,
{8}4xh[16:1],4,6,6,{16}2>6[4:1],4,3,5,{48},,,,{24}8x,A8,,,{8}2xh[16:1],
2,4h[16:1],4,{16}8-4[4:1],1,7,8,{48},,,,,,{24}5,6,7,
{8}8xh[16:1],8,2,2,{16}5,4,6,5h[16:1],,,{8}8xh[16:1],
{16}1x,1,{8}7h[8:1],6h[8:1],5h[8:1],{16}8x,8,{8}2h[8:1],3h[8:1],4h[8:1],
{16}5x,5,{8}6h[8:1],7h[8:1],8h[8:1],{16}1x,1,{8}8h[8:1],7h[8:1],6h[8:1],
{16}5x,5,{8}6h[8:1],7h[8:1],8h[8:1],{16}1x,1,{8}8h[8:1],7h[8:1],6h[8:1],
5,8,5-2[0.6522##0.2174],2,5-8[8:1],5x,{4}5x,
{8}3/1,C,1/3-5[8:1],C,3/1,C,6/8-2[8:1],C,
8/6-4[8:1],C,6/8-2[8:1],C,6/8,{16}C,7xs3[0.2174##0.3261],{4}7x,
{8}1x-4[8:1],A6,1/7v4[8:1],A5,7/1,A2,3/5,A6,
7/1,8/2,6/1,2/8,{4}5/1pp5[4:1],1,
{8}A7,6/5,A8,6/5,6/5,A3,6/5,7x,
A3,1/2,A4,1/2,8/2-6[8:1],2/7,6/2,A6,
1-3[8:1],5,1-7[8:1],5,1-4[8:1],5,1>3[8:1]*<7[8:1],5,
{4}1w5[8:1],1pp5[4:1]*qq5[4:1],{6}1,{24}B1,C,{4}A5,
{8}2/8-4[8:1],3,8/7-2[8:1],6,7/5-1[8:1],3,5/4>2[8:1],2<8[8:1],
4/8<6[8:1],B6/E6/D6,A4/E5/B4,B2/E3/D3,{4}B8/A8/E1/4x-8[8:1],4x,
{8}6/E2/A2/D2,5,4/E8/A8/D8,3,2/A6/E6/B6,1>3[8:1],8/A4/E4/D4,1,
A3/E4/D4/7-3[8:1],1-5[8:1],7,1,{2}6xh[4:1],
{16}Ch[4:1],,,D8/B7,{4}B8,{16}Ch[4:1],,,A6/B6,{4}B5,
{12}B4/A4/Cfh[2:1],B5/A5,B6/A6,B7/A7,B8/A8,B1/A1,{2}B2/A2,
{4}2h[4:1]/E7/A6,C,1h[4:1]/E6/A5,C,
8h[4:1]/E5/A4,C,7h[4:1]/E4/A3,{8}C,C,
2h[16:1]/A6,1bh[16:1]/A5f,8bh[16:1]/A4f,7bh[16:1]/A3f,6bh[16:1]/A2f,5bh[16:1]/A1f,4bh[16:1]/A8f,3bh[16:1]/A7f,
4bh[16:1]/A8f,5bh[16:1]/A1f,6bh[16:1]/A2f,7bh[16:1]/A3f,{2}8bh[4:1]/4bh[4:1],
{4}6/C,{8}C/8>4v2>6[8:3],{24}5,6,7,{2}8,
{8}8/2-6[8:1],A5,2/7-3[8:1],A1,7/5-1[8:1],A4,5/3v6[8:1],A2,
3/1v4[8:1],A8,1/7v2[8:1],A6,7/5v8[8:1],A4,5/1v7>8q4[4:1],A3,
{4}1,{8}8xv2<1p5[4:1],8,{4}8,{8}2-6[8:1],8-4[8:1],
2,8,5pp1<8[8:3]*qq1>2[8:3],3,{2}5x,
{8}5/3-1[8:1],A8,5/3-5[8:1],A7,3/1-3[8:1],A7,{4}1/7-1[8:1],
{8}7/5-7[8:1],A4,3/5-3[8:1],A1,5/7q2[4:1],A1,{4}7,
A7,{8}2qq5<6[4:1],B2,{4}2,{8}7-4[8:1],B7,
7/1-4[8:1],8,1/7pp4>3v6[8:3],8,{2}7/1,
{8}8/2-5[8:1],A1,8/2-7[8:1],A1,4/2>5[8:1],A3,6/2,A7,
2/8-5[8:1],A1,2/8-3[8:1],A1,6/8<5[8:1],A7,8/2v4>3v6[4:1],A1,
{4}2,{8}7v5<6v3[4:1],7,{4}7,{8}1-5[8:1],7-3[8:1],
1,7,4pp8<7[8:3]*qq8>1[8:3],6,{2}4,
{16}2h[8:1],,,3,{8}6/4-8[8:1],1,4/6-2[8:1],7-3[8:1],6x,7x,
8x,1,{24}4x,3,4,3,4,3,5x,4,5,4,5,4,6x,5,6,5,6,5,
{8}4/7-4[0,6522##0,2174],,,7/4,2-5[0,6522##0,2174],,,2/5,
8h[8:1],2h[8:1],4h[8:1],6h[8:1],{2}Cfh[4:1],
{8}A5/2>4[8:1],6,A7/2qq6[4:1],6,2/A5,{16}D1,C,{4}7<5[8:1],
{8}A4/7>1[8:1],3,A2/7pp3[4:1],3,7/A4,{16}D1,C,{4}2<8[8:1],
{8}A7/2>4[8:1],6,A5/2pp6[4:1],6,2/A7,{16}D4,C,{4}7>1[8:1],
{8}A2/7<5[8:1],3,A4/7qq3[4:1],3,7/A2,{16}D6,C,,,,,2x-6[8:1],
1,2,1,{4}2,{16}7x-3[8:1],8,7,8,{4}7,
{16}4x-8[8:1],3,4,3,{4}4,{16}5x-1[8:1],6,5,6,{4}5,
{16}8b,4,8,4,1b,5,1,5,2b,6,2,6,3b,7,3,7,
{12}4bx/8bx,8b/4b,4b/8b,5bx/1bx,5b/1b,1b/5b,{2}6bx/2bx,
{8}5/1h[1:1],B5,4,B4,6,B6,5,B5,
8h[1:1],B1,3,B3,2,B2,4,B4,
1x,{16}8,1,7,8,6,7,{8}A5f,{16}1,8,2,1,3,2,
{8}A4f,{16}5,4,6,5,7,6,{4}8xh[8:1],{8}8h[8:1],{24}4,3,2,
{8}1xh[8:1],E6/A5,1h[8:1],A5/E5,8h[8:1],A4/E4,8h[8:1],A4/E5,
1h[8:1],A5/E5,1h[8:1],A5/E6,2h[8:1],A6/E7,3h[8:1],A7/E8,
4xh[16:1],6xh[16:1],4xh[16:1],6xh[16:1],3xh[16:1],5xh[16:1],3xh[16:1],5xh[16:1],
4,A6,4>1[8:1]*<7[8:1],A2,{4}4w8[4:1],4,
A7/A8/A1,B7/C/B1,{8}5/3,C,6/4>8[4:1],C,
8<4[4:1],C,4>8[4:1],C,8<4[4:1],C,,C,
8-4[8:1],1-5[8:1],8,1,7s3[8:1],3-7[8:1],{4}7,
{8}2>6[4:1],1,{4}2/8,{8}7x<3[4:1],8,{4}7/1,
{8}1q5[4:1],8/7,{4}8/1,{8}8z4-8[4:1],1/2,{4}1/8,
{8}2-5[8:1],A8,2/7-4[8:1],A1,7/1>4[8:1],A8,1/7<5[8:1],5>3[8:1],
7/3>1[8:1],1<7[8:1],,,3s7[8:1],7-3[8:1],{4}3x,
{8}6x,B6,4,B4,7,B7,{4}3xh[2:1],
{8},,,7/1,2/8v3[8:1],7/1v6[8:1],8xqq6v4[8:3],1x,
{4}8x,1xpp3v5[8:3],1x,8h[4:1],
{12}4xh[12:1],7xh[12:1],3xh[12:1],6xh[12:1],2xh[12:1],5xh[24:11],{2}1xh[8:3],
{4}6h[4:1]/E2/A2/E3,C,7h[4:1]/B3/E4/A3,C,
8h[4:1]/A4/D5/B4,C,1h[4:1]/B6/A5/B5,{8}C,C,
8h[16:1]/A4,7bh[16:1]/A3f,6bh[16:1]/A2f,5bh[16:1]/A1f,4bh[16:1]/A8f,3bh[16:1]/A7f,4bh[16:1]/A8f,5bh[16:1]/A1f,
6bh[16:1]/A2f,7bh[16:1]/A3f,8bh[16:1]/A4f,1bh[16:1]/A5f,{2}2bh[8:3]/6bh[8:3],
Ch[4:1],Ch[4:1],
{4}Ch[4:1],{8}1<5v7<3[8:3],{24}4,3,2,{2}1,
{8},,,,1/7-3[8:1],A4,7/2-6[8:1],A8,
2/4-8[8:1],A5,4/6v3[8:1],A7,6/8v5[8:1],A1,8/2v7[8:1],A3,
2/4v1[8:1],A5,4/8v2<1p5[4:1],A6,{4}8,{8}1xv7>8q4[4:1],1,
{4}1,{8}7p3[8:1],1q5[8:1],7,1,4xv1>2qq8[8:3]*v7<6pp8[8:3],6,
{2}4x,{8}4/6-8[8:1],A1,4/6-4[8:1],A2,
6/8-6[8:1],A2,{4}8/2-8[8:1],{8}2/4-2[8:1],A5,6/4-6[8:1],A8,
4/2p7[4:1],A8,{4}2,A2,{8}1pp5[4:1],A1,
{4}1x,{8}8,A8,1/8x-4[8:1],7x,8/1xq6v3<4q8[8:3],2x,
{2}8/1,{8}1/7-4[8:1],A8,1/7-2[8:1],A8,
5/7<4[8:1],A6,3/7,A2,7/1-4[8:1],A8,7/1-6[8:1],A8,
3/1>4[8:1],A2,1/7v5<6v3[4:1],A8,{4}7,{8}2v4>3v6[4:1],2,
{4}2,{8}8p4[8:1],2q6[8:1],8,2,5xv8<7pp1[8:3]*v2>3qq1[8:3],3,
{2}5,{16}7h[8:1],,,6,{8}3/5-1[8:1],8,
5/3-7[8:1],2,5/3>8[8:1],4,3/5-1[8:1],6,3/5<8[8:1],2,
5/3-7[8:1],4-8[8:1],3x,4x,{4}5xh[8:1],{8}2pp5[4:1],A2,
{4}2,{8}7,A7,2/7p3[8:1],A1,7x/2pp3pp5pp7[8:3],A8,
{2}7/2x,{8}8/1-5[8:1],2,1x/8-4[8:1],7,
8x/1q5[8:1],2,8/1x,7,5/4-8[8:1],3,4x/5-1[8:1],6,
4/5x,3,1/2q6qq5[4:1],8,{4}1/2x,{8}7p3pp4[4:1],7,
{4}7x,{8}2,1,2/8p4[8:1],A7,8x/2v7>8v5<6v3[8:3],A3,
{2}8/2x,{8}2/8-2[8:1],A3,8/6-8[8:1],A5,
6/4-6[8:1],A3,2/4-2[8:1],A1,{4}4/6-4[8:1],{8}6/8-6[8:1],A1,
8/2s6[4:1],A3,{4}2/8,2,{8}4qq2v7[4:1],4,
{4}4x,{8}5,5,{12}5xh[12:1],6h[12:1],7h[12:1],4xh[12:1],3h[12:1],2h[12:1],
5xh[12:1],6h[12:1],8h[12:1],1xh[8:1],{24},,,,{8}8/2-6[8:1],{16}5,5,{8}2/7-3[8:1],A1,
7/5-1[8:1],A4,5/3v6[8:1],A2,3/1v4[8:1],{16}8,8,{8}1/7v2[8:1],A6,
7/5v8[8:1],A4,5/1v7>8q4[4:1],A3,{4}1,{8}8v2<1p5[4:1],8,
{4}8,{8}1xq5[8:1],1,1x/7p3[8:1],A8,7x/1q6v4<5qq3[8:3],A8,
{2}7/1x,{16}7h[8:1],,,6,{8}3/5-1[8:1],8,
5/3-7[8:1],2-6[8:1],3x,2x,1x,8,{24}5x,6,5,6,5,6,
4x,5,4,5,4,5,3x,4,3,4,3,4,{8}5/2-5[0,6522##0,2174],,,2/5,
7-4[0,6522##0,2174],,,7/4,3-8[0,6522##0,2174],,,3/8,
6-1[0,6522##0,2174],,,6/1,2-5[0,6522##0,2174],,,2/5,
7-4[0,6522##0,2174],,,7/4,1h[8:1],7h[8:1],5h[8:1],3h[8:1],
{1}Cfh[4:5],
{8},,,,A4/7<5[8:1],3,A2/7pp3[4:1],3,
7/A4,{16}D1,C,{4}2>4[8:1],{8}A5/2<8[8:1],6,A7/2qq6[4:1],6,
2/A5,{16}D1,C,{4}7>1[8:1],{8}A2/7<5[8:1],3,A4/7qq3[4:1],3,
7/A2,{16}D6,C,{4}2<8[8:1],{8}A7/2>4[8:1],6,A5/2pp6[4:1],6,
2/A7,{16}D4,C,{4}8>2[8:1],{8}D3/8<6[8:1],4,A5/8qq4[4:1],4,
8/D3,{16}D7,C,{4}1<7[8:1],{8}A6/1>3[8:1],5,A4/1pp5[4:1],5,
1/A6,{16}D3,C,{4}8<6[8:1],{8}D6/8>2[8:1],4,A3/8pp4[4:1],4,
8/D6,{16}D2,C,{4}1>3[8:1],{8}D4/1<7[8:1],5,A6/1qq5[4:1],5,
1/D4,{16}D8,C,,,,,1x-5[8:1],2,1,2,{4}1,
{16}8x-4[8:1],7,8,7,{4}8,{16}4x-8[8:1],3,4,3,{4}4,
{16}5x-1[8:1],6,5,6,{4}5,{16}8xp4[8:1],1,8,1,{4}8,
{16}2xp6[8:1],3,2,3,{4}2,{16}5xp1[8:1],4,5,4,{4}5,
{16}6xp2[8:1],7,6,7,{4}6,{16}1b,5,1,5,1b,5,1,5,
2b,6,2,6,2b,6,2,6,3b,7,3,7,3b,7,3,7,
4b,8,4,8,4b,8,4,8,{12}7bx/3bx,7b/3b,7b/3b,6bx/2bx,2b/6b,2b/6b,
5bx/1bx,1b/5b,1b/5b,4bx/8bx,4b/8b,4b/8b,5bxh[24:1]/1bxh[24:1],2bh[24:1]/6bh[24:1],7bh[24:1]/3bh[24:1],2bxh[24:1]/6bxh[24:1],3bh[24:1]/7bh[24:1],4bh[24:1]/8bh[24:1],
{2}5bxh[4:1]/1bxh[4:1],{8}8,{16}2,2,{8}3h[8:1],4h[8:1],
{16},5-1[4:1],{8}5h[8:1],7,{24}2,3,4,{8}5xh[16:1],5,3,3,
{16}7<3[4:1],5,6,4,{48},,,,{24}1x,A1,,,{8}7xh[16:1],7,5h[16:1],5,
{16}1-5[4:1],8,2,1,{48},,,,,,{24}4,3,2,{8}1xh[16:1],{16}1,8h[16:3],{8}1<5[4:1],1,
{16}1,1h[8:1],{48},,,,,,,,,,,,{24}5,6,7,{8}8xh[16:1],8,2xh[16:1],2,
{16}4,3,4,3h[16:3],{48},,,,,,{24}4,5,6,{8}7xh[16:1],7,3xh[16:1],3,
{16}5>2[4:1],4,6,5,{48},,,,,,{24}7,B7,,{8}8xh[16:1],8,6xh[16:1],6,
{32}5x-1[4:1],4x,{16}5x,4h[8:1],6h[16:1],{48},,,,,,{24}3,4,5,{8}6q3[4:1],6xh[16:1],6,5,
4q1[4:1],4xh[16:1],4,3,2q7[4:1],2xh[16:1],2,1,
{16}8,8,2z6b[0,6522##0,2174],2,{24}4,5,6,7,8,1,{2}2,
E
&inote_5=(138){4},{24},,,,,,,,,,,,,,,,,3xh[24:1],
{4},,{32}1x,A1,,,,,,,,,,,,,,,{2}7xh[16:1],
{32}D3,A3,,,,,,,,,,,,,{16}7xv2<1-6pp8[0.2174##2.5],
{1}5xv2>3-6qq4[0.1087##2.5],
{8},,,,,,,,3,
B3,5,B5,4,{16}B4,6xh[16:3],{48},,,,,,{24}4,3,2,
{8}1xh[16:1],1,7,7,5,{16}5,4xh[16:3],{48},,,,,,{24}5,6,7,
{8}8x,B8,2,B2,7,{16}B7,1xh[16:3],{48},,,,,,{24}8,7,6,
{8}5xh[16:1],5,3,3,{16}1<5[4:1],2,8,1,,,,,{8}1,
{16}7,7,{8}6h[8:1],5h[8:1],{16},4-8[4:1],{8}4h[8:1],2,{24}7,6,5,
{8}4xh[16:1],4,6,6,{16}2>6[4:1],4,3,5,{48},,,,{24}8x,A8,,,{8}2xh[16:1],
2,4h[16:1],4,{16}8-4[4:1],1,7,8,{48},,,,,,{24}5,6,7,
{8}8xh[16:1],8,2,2,{16}5,4,6,5h[16:1],,,{8}8xh[16:1],
{16}1x,1,{8}7h[8:1],6h[8:1],5h[8:1],{16}8x,8,{8}2h[8:1],3h[8:1],4h[8:1],
{16}5x,5,{8}6h[8:1],7h[8:1],8h[8:1],{16}1x,1,{8}8h[8:1],7h[8:1],6h[8:1],
{16}5x,5,{8}6h[8:1],7h[8:1],8h[8:1],{16}1x,1,{8}8h[8:1],7h[8:1],6h[8:1],
5,8,5-2[90#13:1],2,5-8[8:1],5x,{4}5x,
{8}3/1,C,1/3-5[8:1],C,3/1,C,6/8-2[8:1],C,
8/6-4[8:1],C,6/8-2[8:1],C,6/8,{16}C,7xs3[265#4:1],{4}7x,
{8}1x-4[8:1],A6,1/7v4[8:1],A5,7/1,A2,3/5,A6,
7/1,8/2,6/1,2/8,{4}5/1pp5[4:1],1,
{8}A7,6/5,A8,6/5,6/5,A3,6/5,7x,
A3,1/2,A4,1/2,8/2-6[8:1],2/7,6/2,A6,
1-3[8:1],5,1-7[8:1],5,1-4[8:1],5,1>3[8:1]*<7[8:1],5,
{4}1w5[8:1],1pp5[4:1]*qq5[4:1],{6}1,{24}B1,C,{4}A5,
{8}2/8-4[8:1],3,8/7-2[8:1],6,7/5-1[8:1],3,5/4>2[8:1],2<8[8:1],
4/8<6[8:1],B6/E6/D6,A4/E5/B4,B2/E3/D3,{4}B8/A8/E1/4x-8[8:1],4x,
{8}6/E2/A2/D2,5,4/E8/A8/D8,3,2/A6/E6/B6,1>3[8:1],8/A4/E4/D4,1,
A3/E4/D4/7-3[8:1],1-5[8:1],7,1,{2}6xh[4:1],
{16}Ch[4:1],,,D8/B7,{4}B8,{16}Ch[4:1],,,A6/B6,{4}B5,
{12}B4/A4/Cfh[2:1],B5/A5,B6/A6,B7/A7,B8/A8,B1/A1,{2}B2/A2,
{4}2h[4:1]/E7/A6,C,1h[4:1]/E6/A5,C,
8h[4:1]/E5/A4,C,7h[4:1]/E4/A3,{8}C,C,
2h[16:1]/A6,1bh[16:1]/A5f,8bh[16:1]/A4f,7bh[16:1]/A3f,6bh[16:1]/A2f,5bh[16:1]/A1f,4bh[16:1]/A8f,3bh[16:1]/A7f,
4bh[16:1]/A8f,5bh[16:1]/A1f,6bh[16:1]/A2f,7bh[16:1]/A3f,{2}8bh[4:1]/4bh[4:1],
{4}6/C,{8}C/8>4v2>6[8:3],{24}5,6,7,{2}8,
{8}8/2-6[8:1],A5,2/7-3[8:1],A1,7/5-1[8:1],A4,5/3v6[8:1],A2,
3/1v4[8:1],A8,1/7v2[8:1],A6,7/5v8[8:1],A4,5/1v7>8q4[4:1],A3,
{4}1,{8}8xv2<1p5[4:1],8,{4}8,{8}2-6[8:1],8-4[8:1],
2,8,5pp1<8[8:3]*qq1>2[8:3],3,{2}5x,
{8}5/3-1[8:1],A8,5/3-5[8:1],A7,3/1-3[8:1],A7,{4}1/7-1[8:1],
{8}7/5-7[8:1],A4,3/5-3[8:1],A1,5/7q2[4:1],A1,{4}7,
A7,{8}2qq5<6[4:1],B2,{4}2,{8}7-4[8:1],B7,
7/1-4[8:1],8,1/7pp4>3v6[8:3],8,{2}7/1,
{8}8/2-5[8:1],A1,8/2-7[8:1],A1,4/2>5[8:1],A3,6/2,A7,
2/8-5[8:1],A1,2/8-3[8:1],A1,6/8<5[8:1],A7,8/2v4>3v6[4:1],A1,
{4}2,{8}7v5<6v3[4:1],7,{4}7,{8}1-5[8:1],7-3[8:1],
1,7,4pp8<7[8:3]*qq8>1[8:3],6,{2}4,
{16}2h[8:1],,,3,{8}6/4-8[8:1],1,4/6-2[8:1],7-3[8:1],6x,7x
,
8x,1,{24}4x,3,4,3,4,3,5x,4,5,4,5,4,6x,5,6,5,6,5,
{8}4/7-4[90#13:1],,,7/4,2-5[90#13:1],,,2/5,
8h[8:1],2h[8:1],4h[8:1],6h[8:1],{2}Cfh[4:1],
{8}A5/2>4[8:1],6,A7/2qq6[4:1],6,2/A5,{16}D1,C,{4}7<5[8:1],
{8}A4/7>1[8:1],3,A2/7pp3[4:1],3,7/A4,{16}D1,C,{4}2<8[8:1],
{8}A7/2>4[8:1],6,A5/2pp6[4:1],6,2/A7,{16}D4,C,{4}7>1[8:1],
{8}A2/7<5[8:1],3,A4/7qq3[4:1],3,7/A2,{16}D6,C,,,,,2x-6[8:1],
1,2,1,{4}2,{16}7x-3[8:1],8,7,8,{4}7,
{16}4x-8[8:1],3,4,3,{4}4,{16}5x-1[8:1],6,5,6,{4}5,
{16}8b,4,8,4,1b,5,1,5,2b,6,2,6,3b,7,3,7,
{12}4bx/8bx,8b/4b,4b/8b,5bx/1bx,5b/1b,1b/5b,{2}6bx/2bx,
{8}5/1h[1:1],B5,4,B4,6,B6,5,B5,
8h[1:1],B1,3,B3,2,B2,4,B4,
1x,{16}8,1,7,8,6,7,{8}A5f,{16}1,8,2,1,3,2,
{8}A4f,{16}5,4,6,5,7,6,{4}8xh[8:1],{8}8h[8:1],{24}4,3,2,
{8}1xh[8:1],E6/A5,1h[8:1],A5/E5,8h[8:1],A4/E4,8h[8:1],A4/E5,
1h[8:1],A5/E5,1h[8:1],A5/E6,2h[8:1],A6/E7,3h[8:1],A7/E8,
4xh[16:1],6xh[16:1],4xh[16:1],6xh[16:1],3xh[16:1],5xh[16:1],3xh[16:1],5xh[16:1],
4,A6,4>1[8:1]*<7[8:1],A2,{4}4w8[4:1],4,
A7/A8/A1,B7/C/B1,{8}5/3,C,6/4>8[4:1],C,
8<4[4:1],C,4>8[4:1],C,8<4[4:1],C,,C,
8-4[8:1],1-5[8:1],8,1,7s3[8:1],3-7[8:1],{4}7,
{8}2>6[4:1],1,{4}2/8,{8}7x<3[4:1],8,{4}7/1,
{8}1q5[4:1],8/7,{4}8/1,{8}8z4-8[4:1],1/2,{4}1/8,
{8}2-5[8:1],A8,2/7-4[8:1],A1,7/1>4[8:1],A8,1/7<5[8:1],5>3[8:1],
7/3>1[8:1],1<7[8:1],,,3s7[8:1],7-3[8:1],{4}3x,
{8}6x,B6,4,B4,7,B7,{4}3xh[2:1],
{8},,,7/1,2/8v3[8:1],7/1v6[8:1],8xqq6v4[8:3],1x,
{4}8x,1xpp3v5[8:3],1x,8h[4:1],
{12}4xh[12:1],7xh[12:1],3xh[12:1],6xh[12:1],2xh[12:1],5xh[24:11],{2}1xh[8:3],
{4}6h[4:1]/E2/A2/E3,C,7h[4:1]/B3/E4/A3,C,
8h[4:1]/A4/D5/B4,C,1h[4:1]/B6/A5/B5,{8}C,C,
8h[16:1]/A4,7bh[16:1]/A3f,6bh[16:1]/A2f,5bh[16:1]/A1f,4bh[16:1]/A8f,3bh[16:1]/A7f,4bh[16:1]/A8f,5bh[16:1]/A1f,
6bh[16:1]/A2f,7bh[16:1]/A3f,8bh[16:1]/A4f,1bh[16:1]/A5f,{2}2bh[8:3]/6bh[8:3],
Ch[4:1],Ch[4:1],
{4}Ch[4:1],{8}1<5v7<3[8:3],{24}4,3,2,{2}1,
{8},,,,1/7-3[8:1],A4,7/2-6[8:1],A8,
2/4-8[8:1],A5,4/6v3[8:1],A7,6/8v5[8:1],A1,8/2v7[8:1],A3,
2/4v1[8:1],A5,4/8v2<1p5[4:1],A6,{4}8,{8}1xv7>8q4[4:1],1,
{4}1,{8}7p3[8:1],1q5[8:1],7,1,4xv1>2qq8[8:3]*v7<6pp8[8:3],6,
{2}4x,{8}4/6-8[8:1],A1,4/6-4[8:1],A2,
6/8-6[8:1],A2,{4}8/2-8[8:1],{8}2/4-2[8:1],A5,6/4-6[8:1],A8,
4/2p7[4:1],A8,{4}2,A2,{8}1pp5[4:1],A1,
{4}1x,{8}8,A8,1/8x-4[8:1],7x,8/1xq6v3<4q8[8:3],2x,
{2}8/1,{8}1/7-4[8:1],A8,1/7-2[8:1],A8,
5/7<4[8:1],A6,3/7,A2,7/1-4[8:1],A8,7/1-6[8:1],A8,
3/1>4[8:1],A2,1/7v5<6v3[4:1],A8,{4}7,{8}2v4>3v6[4:1],2,
{4}2,{8}8p4[8:1],2q6[8:1],8,2,5xv8<7pp1[8:3]*v2>3qq1[8:3],3,
{2}5,{16}7h[8:1],,,6,{8}3/5-1[8:1],8,
5/3-7[8:1],2,5/3>8[8:1],4,3/5-1[8:1],6,3/5<8[8:1],2,
5/3-7[8:1],4-8[8:1],3x,4x,{4}5xh[8:1],{8}2pp5[4:1],A2,
{4}2,{8}7,A7,2/7p3[8:1],A1,7x/2pp3pp5pp7[8:3],A8,
{2}7/2x,{8}8/1-5[8:1],2,1x/8-4[8:1],7,
8x/1q5[8:1],2,8/1x,7,5/4-8[8:1],3,4x/5-1[8:1],6,
4/5x,3,1/2q6qq5[4:1],8,{4}1/2x,{8}7p3pp4[4:1],7,
{4}7x,{8}2,1,2/8p4[8:1],A7,8x/2v7>8v5<6v3[8:3],A3,
{2}8/2x,{8}2/8-2[8:1],A3,8/6-8[8:1],A5,
6/4-6[8:1],A3,2/4-2[8:1],A1,{4}4/6-4[8:1],{8}6/8-6[8:1],A1,
8/2s6[4:1],A3,{4}2/8,2,{8}4qq2v7[4:1],4,
{4}4x,{8}5,5,{12}5xh[12:1],6h[12:1],7h[12:1],4xh[12:1],3h[12:1],2h[12:1],
5xh[12:1],6h[12:1],8h[12:1],1xh[8:1],{24},,,,{8}8/2-6[8:1],{16}5,5,{8}2/7-3[8:1],A1,
7/5-1[8:1],A4,5/3v6[8:1],A2,3/1v4[8:1],{16}8,8,{8}1/7v2[8:1],A6,
7/5v8[8:1],A4,5/1v7>8q4[4:1],A3,{4}1,{8}8v2<1p5[4:1],8,
{4}8,{8}1xq5[8:1],1,1x/7p3[8:1],A8,7x/1q6v4<5qq3[8:3],A8,
{2}7/1x,{16}7h[8:1],,,6,{8}3/5-1[8:1],8,
5/3-7[8:1],2-6[8:1],3x,2x,1x,8,{24}5x,6,5,6,5,6,
4x,5,4,5,4,5,3x,4,3,4,3,4,{8}5/2-5[90#13:1],,,2/5,
7-4[90#13:1],,,7/4,3-8[90#13:1],,,3/8,
6-1[90#13:1],,,6/1,2-5[90#13:1],,,2/5,
7-4[90#13:1],,,7/4,1h[8:1],7h[8:1],5h[8:1],3h[8:1],
{1}Cfh[4:5],
{8},,,,A4/7<5[8:1],3,A2/7pp3[4:1],3,
7/A4,{16}D1,C,{4}2>4[8:1],{8}A5/2<8[8:1],6,A7/2qq6[4:1],6,
2/A5,{16}D1,C,{4}7>1[8:1],{8}A2/7<5[8:1],3,A4/7qq3[4:1],3,
7/A2,{16}D6,C,{4}2<8[8:1],{8}A7/2>4[8:1],6,A5/2pp6[4:1],6,
2/A7,{16}D4,C,{4}8>2[8:1],{8}D3/8<6[8:1],4,A5/8qq4[4:1],4,
8/D3,{16}D7,C,{4}1<7[8:1],{8}A6/1>3[8:1],5,A4/1pp5[4:1],5,
1/A6,{16}D3,C,{4}8<6[8:1],{8}D6/8>2[8:1],4,A3/8pp4[4:1],4,
8/D6,{16}D2,C,{4}1>3[8:1],{8}D4/1<7[8:1],5,A6/1qq5[4:1],5,
1/D4,{16}D8,C,,,,,1x-5[8:1],2,1,2,{4}1,
{16}8x-4[8:1],7,8,7,{4}8,{16}4x-8[8:1],3,4,3,{4}4,
{16}5x-1[8:1],6,5,6,{4}5,{16}8xp4[8:1],1,8,1,{4}8,
{16}2xp6[8:1],3,2,3,{4}2,{16}5xp1[8:1],4,5,4,{4}5,
{16}6xp2[8:1],7,6,7,{4}6,{16}1b,5,1,5,1b,5,1,5,
2b,6,2,6,2b,6,2,6,3b,7,3,7,3b,7,3,7,
4b,8,4,8,4b,8,4,8,{12}7bx/3bx,7b/3b,7b/3b,6bx/2bx,2b/6b,2b/6b,
5bx/1bx,1b/5b,1b/5b,4bx/8bx,4b/8b,4b/8b,5bxh[24:1]/1bxh[24:1],2bh[24:1]/6bh[24:1],7bh[24:1]/3bh[24:1],2bxh[24:1]/6bxh[24:1],3bh[24:1]/7bh[24:1],4bh[24:1]/8bh[24:1],
{2}5bxh[4:1]/1bxh[4:1],{8}8,{16}2,2,{8}3h[8:1],4h[8:1],
{16},5-1[4:1],{8}5h[8:1],7,{24}2,3,4,{8}5xh[16:1],5,3,3,
{16}7<3[4:1],5,6,4,{48},,,,{24}1x,A1,,,{8}7xh[16:1],7,5h[16:1],5,
{16}1-5[4:1],8,2,1,{48},,,,,,{24}4,3,2,{8}1xh[16:1],{16}
1,8h[16:3],{8}1<5[4:1],1,
{16}1,1h[8:1],{48},,,,,,,,,,,,{24}5,6,7,{8}8xh[16:1],8,2xh[16:1],2,
{16}4,3,4,3h[16:3],{48},,,,,,{24}4,5,6,{8}7xh[16:1],7,3xh[16:1],3,
{16}5>2[4:1],4,6,5,{48},,,,,,{24}7,B7,,{8}8xh[16:1],8,6xh[16:1],6,
{32}5x-1[4:1],4x,{16}5x,4h[8:1],6h[16:1],{48},,,,,,{24}3,4,5,{8}6q3[4:1],6xh[16:1],6
,5,
4q1[4:1],4xh[16:1],4,3,2q7[4:1],2xh[16:1],2,1,
{16}8,8,
2z6b[90#10:1],
2,{24}4,5,6,7,8,1,{2}2,
E
