&title=Cagayake!GIRLS
&artist=桜高軽音部
&first=0
&des=Sakurago
&lv_5=12+
&inote_5=(170.00)
{8},,,,,,,,
{8},,,,,,,,
{8}3h[8:2],4,6h[8:2],5,3h[8:2],4,6h[8:2],5,
{8}3h[8:2],4,6h[8:2],5,3-8[8:1],,3/4,,
{8}7h[8:2],5,2h[8:2],4,7h[8:2],5,2h[8:2],4,
{8}7h[8:2],5,2h[8:2],4,7-3[8:1],,3/7,,
{16}1,8,1,7,1,6,1,5<8[8:1],{8}1>4[8:1],,,,
{8}5/7,6,2/4,3,6/8,7,1/3,2,
{8}7h[8:1],5,1h[8:1],4,5-2[8:1]/6-1[8:1],,5/6,,
{8}7-3[8:1],4,3,2,1>4[8:1],8,7,6-3[8:1],
{8}5,6-2[8:1],1,6,,3/8,3/8,,
{8}4/2,3,7/5,6,3/1,2,8/6,7,
{8}1/8,2,1/8,7,4b/3b,2b/5b,1b/6b,,
{8}2-5[8:1],1,8,7,6-2[8:1],5,4,3<6[8:1],
{8},7-4[8:1],,8-4[8:1],,1-4[8:1],,1<6[8:13],
{8},,,,,,,,
{8},,,,,,,,
{8}7h[8:4],,5,,2,3,4,5,
{16}6,4,5,3,7,4,5,2,{8}6-3[8:1],,6/1,,
{8}2h[8:2],1,1,,7h[8:2],8,8-4[8:1],,
{8}6-2[8:1],,3-8[8:1],,,7,7,,
{8}6h[8:2],5,5,,3h[8:2],4,4-8[8:1],,
{8}2-6[8:1],,7-4[8:1],,,3,3,,
{8}2h[8:2],1,8,,7h[8:3],,1,2-7[8:1],
{8},3,,4-7[8:1],4,,8,,
{8}7h[8:2],8,1,,2h[8:3],,8,7-2[8:1],
{8},6,,5>2[8:1],5,,1,,
{8}3h[8:2],4,2,,6h[8:2],5,7-4[8:1],,
{8}5-1[8:1],,3-6[8:1],,,8,8,,
{8}6h[8:2],5,7,,3h[8:2],4,2-5[8:1],,
{8}4-8[8:1],,6-3[8:1],,,1,1,,
{8}3h[8:2],2,1,8,7h[8:3]/8,,5,5-2[8:1],
{8},1,8-3[8:1],6,7-4[8:1],,,,
{8}6h[8:2],7,8,1,2h[8:3]/1,,4,4-7[8:1],
{8},8,1<6[8:1],3,2>5[8:1],,,,
{8}6,4,5,2,8,,7,7>2[8:2],
{8},2-6[8:2],,6-3[8:2],,1,1,,
{8}3,5,4,7,1,,2,2>5[8:2],
{8},5-1[8:2],,1<6[8:2],,4,4,,
{8}5,3,6,1,7,,6,6-1[8:2],
{8},1-5[8:2],,5-2[8:2],,8,8,,
{8}3h[8:2],1,4h[8:2],1,5h[8:2],8,6h[8:1],8-4[8:1],
{8},2-5[8:1]/8,,2/7<4[8:1],,3,2,1,
{16}7,7,4,4,5,5,2,2<7[8:1],
6>3[8:1],,,,,,,,
{8}5/7,6,2/4,3,6/8,7,1/3,2,
{8}6h[8:1],8,4h[8:1],1,8-3[8:1]/7-4[8:1],1/6,8b/7b,,
{8}6-2[8:1],1,2,3,4>1[8:1],5,6,7-2[8:1],
{8}8,7-3[8:1],4,7,,2/5,2/5,,
{8}1/3,2,6/8,7,2/4,3,5/7,6,
{8}4/5,3,4/5,6,1b/2b,3b/8b,4b/7b,,
{8}3-8[8:1],4,5,6,7,8,6,{32}2b,3,4,5,
{32}6,7,8,1,2,3,4,5,6,7,8,1,{8}2b/6b,,4b/5b,1b/8b,,
{8}4/2,3,7/5,6,3/1,2,8/6,7,
{8}3h[8:1],1,5h[8:1],8,1-6[8:1]/2-5[8:1],3/8,1b/2b,,
{8}3-7[8:1],8,7,6,5<8[8:1],4,3,2-7[8:1],
{8}1,2-6[8:1],5,2,,7/4,7/4,,
{8}8/6,7,3/1,2,7/5,6,4/2,3,
{8}6h[8:1],5,4>1[8:1],5<8[8:1],4-8[8:1],5,4b,,
{8}6-1[8:1],5,4,3,2-6[8:1],1,8,7>2[8:1],
{8},3<6[8:1],,8>3[8:1],,4<7[8:1],,4-8[8:13],
{8},,,,,,,,
{8},,,,,,,,
{8}3h[8:4],,1,,6,7,8,1,
{16}2,8,1,7,3,8,1,6,{8}2-7[8:1],,,,
E
