&title=外のヒト
&artist=原口沙輔
&first=0
&des=SnapDot
&lv_5=13
&lv_6=13
&inote_5=(140)
{1},
{4}4xh,4xh,4xw8[8:1],4x,
{16}2b/6b,,,3,5<7[8:1],,4,,4-2[8:1]*-8[8:1],,,,4,,,,
{16}1/7,,,8,2>4[8:1],,1,,1<6[8:1]*-5[8:1],,,,1b,,,,
{16}3b/4b,,,2,5-7[8:1],,1,,1,,,2,8,,8,,
{16}4h,B7/E7,,,3hx[16:1],,B7/B6,,4h,E8/B8,,,2hx[8:1]/3hx[8:1],,,,
{8}1,2,1/B4/E4,,8,7,8/B6/B5,,
{8}1v4[8:1]*v6[8:1],,1,,7-3[8:1]/3-7[8:1],,3/7,,
{8}5,4,5/B2/B3,,3,5,3/B7/B6,,
{4}5V31[4:1],1V75[4:1],5s1[8:1]*v2<1[8:1],,
{8}2-5[8:1],1,2/8,,7-4[8:1],8,7/1>4[8:1],,
{4}1-6[8:1],1-4[8:1],1-5[8:1],1,
{8}6<1[8:1]/4,5,4/6,,3>8[8:1]/5,4,3/5pp5[4:1],,
{8}1,,B1/E2/B2/B3/B4/E4/A3,,4w8[8:1],4,,,
{8}2-7[2:1],,,3-6[6:1],3,,,2-7[4:1],
{8}2,,3-6[8:1],,2,,1w5[8:1],,
{8}1x,,1w5[8:1],,1x,,1-5[8:1],,
{4}8-6[8:1],2-4[8:1],5w1[8:1],5x,
{8}7-2[8:1],3/6,7,,7-2[8:1],3/6,7,,
{8}7-2[8:1],7,6-3[8:1],6,1-4[8:1]*-5[8:1],,1b,,
{8}6<1[8:1],5,4,3,7>2[8:1],6,5,4,
{8}8>3[8:1]/4,3,4x/8x,,8>3[8:1]/4,3,4x/8x,,
{8}2-7[8:1],1/8,2,,2-7[8:1],1/8,2,,
{8}2-7[8:1],2,3-6[8:1],3,8v5[8:1]*-4[8:1],,8b,,
{8}3>8[8:1],4,5,6-3[8:1],7,8,1-4[8:1]*-5[8:1],2,
{4}1b-6[8:1]*-7[8:1],1bw5[8:1],1b-7[8:1]*-3[8:1],,
{16}4x/6x,,,6,4-2[8:1],,5,,5-7[8:1]*q1[8:1],,,,5,,,,
{16}8/2,,,1,7<5[8:1],,8,,8v3[8:1]*p4[8:1],,,,8b,,,,
{16}6b/5b,,,7,4-2[8:1],,8,,8,,,7,1,,1,,
{16}5h,B2/E3,,,6hx[16:1],,B2/B3,,5h,E2/B1,,,7hx[8:1]/6hx[8:1],,,,
{1}8<4qq2-8[4:14],
,
,
,
{1}3qq8v6qq4[4:11],
,
,
{4},,5w1[8:1],5b,
{8}3/7h[8:1],,3,8,3/8,,3,5,
{8}4/6h[8:1],,4/7h[8:1],,4/8h[8:1],,4/1w5[8:1],,
{8}1x,,1w5[8:1],,1x,,1-5pp6[3:1],,
{4},,,4x/8x,
{8}8-5[8:1],4/1,8,,8-5[8:1],4/1,8,,
{8}7-2[8:1],7,6-3[8:1],6,8v3[8:1]*v5[8:1],,8b,,
{8}6x<1[8:1],5,4,3,7x>2[8:1],6,5,4,
{8}8v6[8:1]/4v2[8:1],3,4bx/8bx,,8v6[8:1]/4v2[8:1],3,4bx/8bx,,
{8}4-1[8:1],5/8,4,,4-1[8:1],5/8,4,,
{8}2-7[8:1],2,3-6[8:1],3,8v5[8:1]*qq6[8:1],,8b,,
{8}3>8[8:1],4,5,6-3[8:1],7,8,1-4[8:1]*-5[8:1],2,
{4}1b-6[8:1]*-7[8:1],1bw5[8:1],1b-7[8:1]*-3[8:1],,
{16}3x,4,3,5,2,6,1,7,8,6,1,5,2-7[8:1],4,3,5,
{4}2-6[8:1],2-5[8:1],,2-4[8:1]*-6[8:1],
{4}2,2-6[8:1]*-8[8:1],2,2-6[8:1],
{16}2,,1x,8x,7x,,5x,,5x,,,,C,,,,
&inote_6=(140)
{1},
{4}4xh,4xh,4xw8[8:1],4x,
{16}2b/6b,,,3,5<7[8:1],,4,,4-2[8:1]*-8[8:1],,,,4,,,,
{16}1/7,,,8,2>4[8:1],,1,,1<6[8:1]*-5[8:1],,,,1b,,,,
{16}3b/4b,,,2,5-7[8:1],,1,,1,,,2,8,,8,,
{16}4h,B7/E7,,,3hx[16:1],,B7/B6,,4h,E8/B8,,,2hx[8:1]/3hx[8:1],,,,
{8}1,2,1/B4/E4,,8,7,8/B6/B5,,
{8}1v4[8:1]*v6[8:1],,1,,7-3[8:1]/3-7[8:1],,3/7,,
{8}5,4,5/B2/B3,,3,5,3/B7/B6,,
{4}5V31[4:1],1V75[4:1],5s1[8:1]*v2<1[8:1],,
{8}2-5[8:1],1,2/8,,7-4[8:1],8,7/1>4[8:1],,
{4}1-6[8:1],1-4[8:1],1-5[8:1],1,
{8}6<1[8:1]/4,5,4/6,,3>8[8:1]/5,4,3/5pp5[4:1],,
{8}1,,B1/E2/B2/B3/B4/E4/A3,,4w8[8:1],4,,,
{8}2-7[2:1],,,3-6[6:1],3,,,2-7[4:1],
{8}2,,3-6[8:1],,2,,1w5[8:1],,
{8}1x,,1w5[8:1],,1x,,1-5[8:1],,
{4}8-6[8:1],2-4[8:1],5w1[8:1],5x,
{8}7x-2[8:1]/2x,3/6,7,,7x-2[8:1]/2x,3/6,7,,
{8}7-2[8:1],7,6-3[8:1],6,1v6[8:1]*v4[8:1],,1b,,
{8}6x<1[8:1],5,4,3,7x>2[8:1],6,5,4,
{8}8>3[8:1]/4,3,4x/8x,,8>3[8:1]/4,3,4x/8x,,
{8}2x-7[8:1]/7x,1/8,2,,2x-7[8:1]/7x,1/8,2,,
{8}2-7[8:1],2,3-6[8:1],3,8v5[8:1]*-4[8:1],,8b,,
{8}3>8[8:1],4,5,6-3[8:1],7,8,1-4[8:1]*-5[8:1],2,
{4}1b-6[8:1]*-7[8:1],1bw5[8:1],1bv8[8:1]*v2[8:1],,
{16}4x/6x,,,6,4-2[8:1],,5,,5-7[8:1]*q1[8:1],,,,5,,,,
{16}8/2,,,1,7<5[8:1],,8,,8v3[8:1]*p4[8:1],,,,8b,,,,
{16}6b/5b,,,7,4-2[8:1],,8,,8,,,7,1,,1,,
{16}5h,B2/E3,,,6hx[16:1],,B2/B3,,5h,E2/B1,,,7hx[8:1]/6hx[8:1],,,,
{1}8v5v8v3v8[2:7],
,
,
,
{1}3qq8v6qq4[4:11],
,
,
{4},,5w1[8:1],5b,
{8}3/7h[8:1],,3,8,3/8,,3,5,
{8}4/6h[8:1],,4/7h[8:1],,4/8h[8:1],,4/1w5[8:1],,
{8}1x,,1w5[8:1],,1x,,1-5qq4[3:1],,
{4},,,E8/B8/E1/E5/B4/E4,
{8}8x-5[8:1]/5x,4/1,8,,8x-5[8:1]/5x,4/1,8,,
{8}7-2[8:1],7,6-3[8:1],6,8v3[8:1]*v5[8:1],,8b,,
{8}6x<1[8:1],5,4,3,7x>2[8:1],6,5,4,
{8}8v6[8:1]/4v2[8:1],3,4bx/8bx,,8v6[8:1]/4v2[8:1],3,4bx/8bx,,
{8}4x-1[8:1]/1x,5/8,4,,4x-1[8:1]/1x,5/8,4,,
{8}2-7[8:1],2,3-6[8:1],3,8v5[8:1]*pp2[8:1],,8b,,
{8}3>8[8:1],4,5,6-3[8:1],7,8,1-4[8:1]*-5[8:1],2,
{4}1b-6[8:1]*-7[8:1],1bw5[8:1],1bv7[8:1]*v3[8:1],,
{16}3x,4,3,5,2,6,1,7,8,6,1,5,2-7[8:1],4,3,5,
{4}2-6[8:1],2-5[8:1],2,2-4[8:1]*-6[8:1],
{4}2,2-6[8:1]*-8[8:1],2,2-6[8:1],
{16}2,,1x,8x,7x,,5x,,5x,,,,C,,,,
