&title=源流懐古
&artist=Halozy
&first=0
&des=Tane
&lv_1=2
&lv_2=4
&lv_3=6
&lv_4=9
&lv_5=12
&inote_1=(173){1},
{1}4b>5[2:7],,,,
8<1[2:7],,,,
{8}3h[8:3],,,,
,,,,
{8}2h[8:3],,,,
,,,,
{8}5,,,,
,,,,
{8}3,,,,
,,,,
{8}6h[8:3],,,,
,,,,
{8}7h[8:3],,,,
,,,,
{8}7,,,,
,,,,
{8}2,,,,
,,,,
{8}8h[8:3],,,,
,,,,
{8}1h[8:3],,,,
,,,,
{8}5,,,,
,,,,
{8}1h[8:3],,,,
,,,,
{8}6h[8:3],,,,
,,,,
{8}3h[8:3],,,,
,,,,
{8}6,,,,
,,,,
{8}3,,,,
,,,,
{8}1h[8:3],,,,
,,,,
{8}8h[8:3],,,,
,,,,
{8}4,,,,
,,,,
{8}8h[8:3],,,,
,,,,
{8}3h[8:3],,,,
,,,,
{8}6h[8:3],,,,
,,,,
{8}2,,,,
,,,,
{8}6,,,,
,,,,
{8}1h[4:1],,,,
,,,,
{8}8h[4:1],,,,
,,,,
{8}1h[4:1],,,,
,,,,
{8}8h[4:1],,,,
,,,,
{8}5h[4:1],,,,
,,,,
{8}3h[4:1],,,,
,,,,
{8}7h[4:1],,,,
,,,,
{8}2h[4:1],,,,
,,,,
{8}18,,,,
,,,,
{8}81,,,,
,,,,
{8}16,,,,
,,,,
{8}83,,,,
,,,,
{8}12,,,,
,,,,
{8}87,,,,
,,,,
{8}7h[2:1]/5h[2:1],,,,
,,,,
{4}1^4[2:1]/8^5[2:1],,,,
{4}2,,,,
{4}4,,,,
{4}8,,,,
{4}6,,,,
{8}1h[2:1]/8h[2:1],,,,
,,,,
{8}4h[2:1]/5h[2:1],,,,
,,,,
{4}24,,,,
{4}4^1[2:1]/5^8[2:1],,,,
{4}1h[8:1],,,,
{4}3h[8:1],,,,
{4}6,,,,
{8}4h[2:1]/5h[2:1],,,,
,,,,
{4}8h[8:1],,,,
{4}6h[8:1],,,,
{8}6,,,,
,,,,
{8}3,,,,
,,,,
{4}1h[8:1],,,,
{4}3h[8:1],,,,
{4}3,,,,
{8}5h[2:1]/4h[2:1],,,,
,,,,
{4}8h[8:1],,,,
{4}6h[8:1],,,,
{4}1,1,1,1,
8,8,8,8,
{8}3h[8:3],,,,
,,2,,
{8}7h[8:3],,,,
,,6,,
{8}2,,,,
,,,,
{8}3h[8:3],,,,
,,2,,
{8}2h[8:3],,,,
,,1,,
{8}6h[8:3],,,,
,,8,,
{8}1,,,,
,,,,
{1},
{8}6h[8:3],,,,
,,7,,
{8}2h[8:3],,,,
,,3,,
{8}3,,,,
,,,,
{8}6h[8:3],,,,
,,7,,
{8}7h[8:3],,,,
,,8,,
{8}3h[8:3],,,,
,,1,,
{8}8,,,,
,,,,
{1},
{8}6h[8:3],,,,
,,7,,
{8}7h[8:3],,,,
,,6,,
{8}4,,,,
,,,,
{8}6h[8:3],,,,
,,7,,
{8}3h[8:3],,,,
,,2,,
{8}2h[8:3],,,,
,,1,,
{8}2,,,,
,,,,
{8}7h[4:1],,,,
,,,,
{4}8b/1,,,,
{4}2,,3,,
{4}4,,,,
{4}5,,,,
{4}1b/8,,,,
{4}7,,6,,
{4}5,,,,
{4}4,,,,
{8}1b/8b,,,,
,,,,{8},,,,
,,,,
{8},,,,
,,,,{8},,,,
,,,,
{8},,,,
,,,,{8},,,,
,,,,
{1},,,,,,,,E
&inote_3=(173){1},
{1}4b>5[2:7],,,,
8<1[2:7],,,,
{8}3h[8:3],,,4,
,,2,,
{8}2h[8:3],,,4,
,,3,,
{8},,5,,
5,,4,,
{8}3,,,3,
,,2,,
{8}6h[8:3],,,5,
,,7,,
{8}7h[8:3],,,5,
,,8,,
{8}7,,,56,
,,2,,
{8}2,,,34,
,,,,
{8}8h[8:3],,,3h[8:3],
,,4,,
{8}1h[8:3],,,6h[8:3],
,,5,,
{8},,5,,
3,,2,,
{8}1h[8:3],,,5h[8:3],
,,6,,
{8}6h[8:3],,,4h[8:3],
,,1,,
{8}3h[8:3],,,5h[8:3],
,,8,,
{8}7,,,6,
,,5,,
{8}3,,,12,
,,,,
{8}1h[8:3],,,6h[8:3],
,,5,,
{8}8h[8:3],,,3h[8:3],
,,4,,
{8},,4,,
6,,7,,
{8}8h[8:3],,,4h[8:3],
,,3,,
{8}3h[8:3],,,5h[8:3],
,,8,,
{8}6h[8:3],,,4h[8:3],
,,1,,
{8}2,,,3,
,,4,,
{8}6,,,87,
,,,,
{8}1h[4:1]/8h[4:1],,,,
3,,3,,
{8}8h[4:1]/1h[4:1],,,,
6,,6,,
{8}1h[4:1]/8h[4:1],,,,
2,,2,,
{8}8h[4:1]/1h[4:1],,,,
7,,7,,
{8}5h[4:1]/6h[4:1],,,,
2,,2,,
{8}3h[4:1]/4h[4:1],,,,
7,,7,,
{8}7h[4:1]/5h[4:1],,,,
2,,2,,
{8}2h[4:1]/4h[4:1],,,,
7,,7,,
{8}18,,18,,
2h[4:1],,,,
{8}81,,81,,
7h[4:1],,,,
{8}16,,16,,
2h[4:1],,,,
{8}83,,83,,
7h[4:1],,,,
{8}12,,12,,
8h[4:1],,,,
{8}87,,87,,
1h[4:1],,,,
{8}7h[4:1]/5h[4:1],,,,
2h[4:1]/4h[4:1],,,,
{4}1^4[2:1]/8^5[2:1],,,,
{4}2,,3,,
{4}4,4,4,,
{4}8,8,7,7,
{4}6,6,5,,
{8}1h[2:1]/8h[2:1],,,,
,,,,
{8}4h[2:1]/5h[2:1],,,,
,,,,
{4}24,,57,,
{4}4^1[2:1]/5^8[2:1],,,,
{4}2h[8:1],,4h[8:1],,
{4}8h[8:1],,4h[8:1],,
{4}6,,3,,
{8}4h[2:1]/5h[2:1],,,,
,,45,,
{4}3h[8:1],,1h[8:1],,
{4}5h[8:1],,1h[8:1],,
{8}6,,5,,
4,,3,,
{8}3,,4,,
56,,34,,
{4}5h[8:1],,8h[8:1],,
{4}4h[8:1],,8h[8:1],,
{4}3,43,6,65,
{8}5h[2:1]/4h[2:1],,,,
,,45,,
{4}4h[8:1],,1h[8:1],,
{4}5h[8:1],,1h[8:1],,
{4}8,1,7,2,
7,2,8,1,
{8}3h[8:3],,,4,
,,2,,
{8}7h[8:3],,,5,
,,6,,
{8},,6,,
4,,3,,
{8}3h[8:3],,,4,
,,2,,
{8}2h[8:3],,,4,
,,1,,
{8}6h[8:3],,,5,
,,8,,
{8}1,,2,,
3^6[4:3],,,,
{1},
{8}6h[8:3],,,5,
,,7,,
{8}2h[8:3],,,4,
,,3,,
{8},,3,,
5,,6,,
{8}6h[8:3],,,5,
,,7,,
{8}7h[8:3],,,5,
,,8,,
{8}3h[8:3],,,4,
,,1,,
{8}8,,7,,
6^3[4:3],,,,
{1},
{8}6h[8:3],,,5,
,,7,,
{8}7h[8:3],,,5,
,,6,,
{8},,4,,
4,,5,,
{8}6h[8:3],,,5,
,,7,,
{8}3h[8:3],,,4,
,,2,,
{8}2h[8:3],,,4,
,,1,,
{8}2,,,3,
,,4,,
{8}7h[4:1],,,,
,,,,
{4}8b/1h[1:1],,,,
{4}2h[2:1],,3h[2:1],,
{4}4h[2:3],,,,
{4}5h[2:1],,,,
{4}1b/8h[1:1],,,,
{4}7h[2:1],,6h[2:1],,
{4}5h[2:3],,,,
{4}4h[2:1],,,,
{8}1b/8b,,,,
,,,,{8},,,,
,,,,
{8},,,,
,,,,{8},,,,
,,,,
{8},,,,
,,,,{8},,,,
,,,,
{1},,,,,,,,E
&inote_5=(173){1},
{8}2h[8:3],,,5h[8:3],
,,8,,
{8}7h[8:3],,,3h[8:3],
,,4,,
{8},,4,3,
2h[4:1],,1,,
{8}8h[8:3],,,5h[8:3],
,,6,,
{8}7h[8:3],,,4h[8:3],
,,1,,
{8}3h[8:3],,,5h[8:3],
,,8,,
{8}7,6/1h[4:1],,4,
,3,2,1,
{8}8h[8:3]/3>6[8:5],,,,
,,,,
{8}47,,3,2-5[8:1]/5,
,2,8,,
{8}47,,1,2-5[8:1]/5,
,2,7,,
{8}48,,4,3,
2-5[8:1],1,28,,
{8}47,,3,2-5[8:1]/5,
,2,7,,
{8}48,,3,2-5[8:1]/6,
,2,7,,
{8}37,,2,1-5[8:1]/5,
,1,8,,
{8}8,1/7-4[8:1],2,3,
,4,3,2,
{16}7,8,7,,
3,4,3,,
{24}6,5,7,4,8,3,
1,,,,,,
{8}8h[4:1]/4,,3,2-5[8:1]/6h[4:1],
,2,8,,
{8}4/7h[4:1],,1,2-5[8:1]/5h[4:1],
,2,7,,
{8}4/8h[2:1],,4,3,
2-5[8:1],1,28,,
{8}4/7h[4:1],,3,2-5[8:1]/5h[4:1],
,2,7,,
{8}4/8h[4:1],,3,2-5[8:1]/6h[4:1],
,2,7,,
{8}3/7h[4:1],,2,1-5[8:1]/5h[4:1],
,1,8,,
{8}8,1/7-4[8:1],2,3,
,4h[8:3],5,6,
{8}7-4[8:1],,17,2^7[8:1],
,,,,
{8}1h[4:1]/5,,6,7-4[8:1]/3h[4:1],
,7,1,,
{8}5/2h[4:1],,8,7-4[8:1]/4h[4:1],
,7,2,,
{8}5/1h[2:1],,5,6,
7-4[8:1],8,71,,
{8}5/2h[4:1],,6,7-4[8:1]/4h[4:1],
,7,2,,
{8}5/1h[4:1],,6,7-4[8:1]/3h[4:1],
,7,2,,
{8}6/2h[4:1],,7,8-4[8:1]/4h[4:1],
,8,1,,
{8}1,8/2-5[8:1],7,6,
,5h[4:1],4,3,
{16}2,1,2,,
6,5,6,,
{24}3,4,2,5,1,6,
8,,,,,,
{8}7h[4:1]/1^6[8:1],,,,
7/6^3[8:1],7,7,,
{8}3pp8[2:1]/7,,7,,
6,,5,,
{8}5h[4:1]/8p3[8:1],,,,
5/3^8[8:1],5,5,,
{8}8pp4[2:1]/5,,5,,
6,,7,,
{8}2h[4:1]/8q4[8:1],,,,
2/4v7[8:1],2,2,,
{8}7qq8[2:1]/2,,2,,
3,,4,,
{8}4h[4:1]/8p3[8:1],,,,
4/3p6[8:1],4,4,,
{8}6qq1[2:1]/4,,4,,
3,,2,,
{8}8h[4:1]/4^1[8:1],4h[8:1],,,
1-4[8:1],8,1,6,
{8}5h[4:1]/4^1[8:1],4h[8:1],,,
1-4[8:1],5,1,7,
{8}8h[4:1]/4^1[8:1],4h[8:1],,,
1-4[8:1],8,1,6,
{8}5h[4:1]/4^1[8:1],4h[8:1],,,
1-4[8:1],5,1,7,
{8}4h[4:1]/8^5[8:1],8h[8:1],,,
5-8[8:1],4,5,2,
{8}1h[4:1]/8^5[8:1],8h[8:1],,,
5-8[8:1],1,5,3,
{8}4h[4:1]/8^5[8:1],8h[8:1],,,
5-8[8:1],4,5,2,
{8}1pp4[8:5]/8qq5[8:5],,,,
,,,,
{8}1q5[8:1],8,7,6,
5-8[8:1],4,3,,
{8}8p4[8:1],1,2,3,
4-1[8:1],5,6,,
{8}2q6[8:1],1,8,7,
5q1[8:1],4,3,2,
{8}8q4[8:1],7,6,5,
4w8[8:1],,,,
{8}1h[4:1]/8h[4:1],,,,
1q6[8:1],1,8,7,
{8}6^3[4:1]/7p2[4:1],,,,
,,23,,
{8}1^4[8:1],5,6,7,
8^5[8:1],4,3,2,
{8}15,15,{24}1,2,3,4,,,
7,6,5,4,3,2,
1,,,,,,
{8}1qq4[2:1],2,3,,
4pp1[2:1],3,2,,
{8}1qq4[2:1],2,3,,
4h[8:1],,2h[8:1],,
{8}1h[8:1],3h[8:1],5h[8:1],7h[8:1],
1h[8:1],7h[8:1],5h[8:1],3pp6[2:1],
{8},,,,
,,4>8[4:1],,
{8}8pp5[2:1],7,6,,
5qq8[2:1],6,7,,
{8}8pp5[2:1],7,6,,
5,,6,7,
{8}8h[4:1],,7h[4:1],,
6h[4:1],,5h[8:1],6h[4:1],
{8},5h[8:1],3h[8:1],1h[8:1],
8h[8:1],3h[8:1],7h[8:1],5,
{8}5qq8[2:1],6,7,,
8qq3[2:1],7,6,,
{8}3qq6[2:1],4,5,,
6h[8:1],,7h[8:1],,
{8}8h[8:1],6h[8:1],4h[8:1],2h[8:1],
8h[8:1],2h[8:1],4h[8:1],6qq3[2:1],
{8},,,,
,,8<4[4:1],2,
{8}4pp1[2:1],3,2,,
1pp6[2:1],2,3,,
{8}6pp3[2:1],,4h[8:1],,
2h[8:1],,1,1,
{8}1-5[8:1],,1/7-3[8:1],,
2-6[8:1]/7,,2/8-5[8:1],,
{8}4-1[8:1]/8,,4/6-2[8:1],,
1,8,71,,
{8}8,6h[4:1],1,3h[4:1],
8,6h[4:1],1,3h[4:1],
{8}5,6h[4:1],4,3h[4:1],
5,6h[4:1],4,5,
{8}6-2[8:1],,7-3[8:1],,
8-4[8:1],,1-5[8:1],,
{8}2-6[8:1],,3-7[8:1],,
4-8[8:1],,5,,
{8}5,7h[4:1],4,2h[4:1],
5,7h[4:1],4,2h[4:1],
{8}8,7h[4:1],1,2h[4:1],
8,7h[4:1],1,8,
{8}7^2[4:1],,2-6[4:1],,
6-3[8:1],,,,
{8}2h[8:1],4h[8:1],6h[8:1],8h[8:1],
1h[8:1],7h[8:1],5h[8:1],3,
{8}1,6h[4:1],8,3h[4:1],
1,6h[4:1],8,3h[8:1],
{8}4,6h[4:1],5,3h[4:1],
4,6h[4:1],5,4,
{8}3-7[8:1],,2-6[8:1],,
1-5[8:1],,8-4[8:1],,
{8}7-3[8:1],,6-2[8:1],,
5-1[8:1],,4,,
{8}1,2h[4:1],1,4h[4:1],
1,3h[4:1],1,5h[4:1],
{8}8,4h[4:1],8,6h[4:1],
8,5h[4:1],8,7h[4:1],
{8}8,2h[4:1],4,6h[4:1],
5,3h[4:1],1,7,
{24}48,,,48,,,
8,7,6,5,,,
3,4,5,6,7,8,
1,,,,,,
{8}52,,6,7-4[8:1]/4,
,7,1,,
{8}52,,8,7-4[8:1]/4,
,7,2,,
{8}51,,5,6,
7-4[8:1],8,71,,
{8}52,,6,7-4[8:1]/4,
,7,2,,
{8}51,,6,7-4[8:1]/3,
,7,2,,
{8}62,,7,8-4[8:1]/4,
,8,1,,
{8}1,8/2-5[8:1],7,6,
,5,6,7,
{8}1h[4:1]/8p3[8:1],,,1,
,,{16}51,62,73,84,
{8}1b-6[8:1]/5b,,4v2[8:1],,
7-4[8:1],,2v8[8:1],,
{8}6-3[8:1],,1v7[8:1],,
4-1[8:1],,7v1[8:1],,
{8}3-6[8:1],,1v3[8:1],,
5-8[8:1],,3v5[8:1],,
{8}7-2[8:1],,5v3[8:1]*-8[8:1],,,,{16}48,37,26,15,
{8}8b-3[8:1]/4b,,8v6[8:1],,
3-1[8:1]*-5[8:1],,3v8[8:1],,
{8}3-6[8:1],,1v3[8:1],,
6-4[8:1]*-8[8:1],,6v3[8:1],,
{8}1-5[8:1],,4v2[8:1],,
7-1[8:1]*-5[8:1],,7v2[8:1],,
{8}4-2[8:1],,4v6[8:1]*-1[8:1],,
,,{16}51,62,73,8b/4b,
{8},,,,
,,,,{8},,,,
,,,,
{8},,,,
,,,,{8},,,,
,,,,
{8},,,,
,,,,{8},,,,
,,,,
{1},,,,,,,,E
