&title=ADAMAS (TV Size)
&artist=LiSA
&first=-0.85
&des=4LS
&lv_5=13+
&inote_5=(95.5)
{2},
{16}4/5,4,4,3/6,3,3,2/7,2,2,1/8,1,1,2/8,8,7,6,
{16}5/4,5,5,6/3,6,6,2/7,7,7,2/7,3/6,4-1[16:1]/5-8[16:1],
(191)
{8},,,4b/5b,,,7-4[8:1]/3-8[8:1],,7/3,,2v5[8:1]/6v1[8:1],,2/6,,4/8-5[8:1],,
{8}8,4qq6[4:1],,6h[8:11],,,7,,8-5[8:1],,8,,4-1[8:1],,4,,
{8}7/8,1-5[8:1]/6-1[8:1],,1b/6b,,,3-8[8:1]/7,,7-4[8:1]/3,,7/2v5[8:1],,2/6v1[8:1],,6/3,,
{8}1/2,3/8,,4>1[8:1],,,8<5[8:1],,1>4[8:1]/8,,8<5[8:1]/1,,1>4[8:1]/8,,1/6<3[8:3],,
{8}3,4,5,6,,,6,,6/1,,6/2,,6,3,6,4,
{8}6,5,6,4,6,,6/3,,3/7,7,3/6,6,3/5,5,3/4,4,
{8}3/5,5,3,4,3,,3/6,6,8,8,1,1,3,3,4,4,
{16}5,,5,,6,,6,,6/5,,,,3/8,,2,1,3,,6,5,7,,4<2[8:3]/8,,,,,,,,,,,,
{32}3,4,5,6,7,8,1,2,3b,,,,
{8},7/2,7-4[8:1],,3-8[8:1],3,6-1[8:1],6,2-5[8:1],2,7,6V82[16:5],
{8}3V57[16:3],3,,,,4/8,4-1[8:1],,7-2[8:1],7,3-6[8:1],3,8-5[8:1],8,5,3,
{8}1-5[8:1],5-1[8:1],
,,,2/7,6,5/2,3,8/4,1/2,8,7,4/6,3,2,
{8}8/7,6/5,3/4,2,1b<6[8:1],,1>4[8:1],,1-5[8:1],,1,,4b-1[8:1]*>1[8:1],,4<7[8:1]*-7[8:1],,4w8[8:1],,
{8}4,,6/2h[4:7],,6,,6,,7,,8,,1,,
{16}4,,,,5,,3,5,4,,,,
{8}4/6h[4:5],,3,,2,,1,,8,,7,8,1,2-5[8:1],6,,6,8-4[8:1],
{8}6,,6,1-5[8:1],6,,6,7-3[8:1],6,,6,4>7[2:1],6,,6,,
{8}6,,6,4,6/4,5,3/5,2,4/6,7,
{16}3,6,2,5,1b-6[8:1],,2,,1/3,,4,,5-1[8:1],,6,,5/7,,8,,7,,6,,1/5,,2,,
{16}3,,4,,5/7,,6,5,6,,3,,2/8,,7,,4/6,,2,,1/7,,6,,3/5,,2,,1/8,,6,,
{16}4/5,,3,,1/8,,7,,3b/6,,5,,4,,3/7b,,4,,5,,2/6,,5,,1b/7,,6,,4,,2/8b,,
{16}3,,5,,1/7,,6,,3b/8b,,6,5,6,,1b/7b,,3,4,3,,4b/8b,,6b/2b,,
{8},4-8[8:1],8-4[8:1],4w8[8:1],,,,2b-8[8:1]/6b,,,5-8[8:1],,5-2[8:1]/3,,5/7,,6<3[4:1],,4,4,
{8},,,3/5,2>4[8:1],2,7<5[8:1],7,3>1[8:1],3,6<8[8:1],6,2-5[8:1],,2/7-3[8:1],,7/1-5[8:1],,1/8,,
{16}6,,,3-8[8:1],3,,6-1[8:1],6,,,,4-8[8:1],,,5,5-1[8:1],,,,,,,,,
{8}2/8,3,4,5/6,7,1/8,
{16}1,8,1,8,1,8,1,8,1,8,
{8}2-5[8:1]/7b,,2b/7-2[8:1],,7b/3-6[8:1],,3b/8-3[8:1]*-5[8:1],,8b,,,,,3/6,,3/5,5,3,5,3,,3/4,5,3/6,7,3,8,3,1,3,2,3,3/4,
{16}5,2,6,1,7,8,7,1,6,2,5,3,
{8}4b-1[8:1],,4/5,6,7,2/8,3,4,5/7,6,3/5,2,3/4,6,5/7,8,2/7,1/8,
{16}3,6,3,6,3,6,4,5,4,5,4,5,4,5,3,6,2,7,1,8,2,7,3,6,2,7,1,8,2b/7b,,3h[8:11]/6b<5[1:1],,
{1},
{8},,,,2qq2[8:3]/7,,2>2[1:1],5h[8:11],,,,,,,,,,,,,
{8}7-3[8:1]/2,,7>7[4:3],4h[8:7],,,,,,,,,
{16}8,4,7,3,6,2,5,1,6,2,7b,,,,
{8}5-1[8:1],,,2-6[8:1],,2/8-4[8:1],,1-5[8:1]/8,,1/7-4[8:1],,4-8[8:1],,3,3,2,
{16}1,6,5,6,2,5,4,5,3,4,2,5,1,7,3,5,2,3/5,,4-8[8:1],4,4,,3,,2,,
{384}8-5[8:1]*-5[8:1],1-4[8:1],
{8},,1b/8b,,
