&title=束縛愛
&artist=Ikayaki
&first=0
&des=FaNM0U
&lv_5=13
&des_5=FaNM0U
&inote_5=
(168){4},{8},,,,,,,,,,,,,,6,
4,{4}3/5h[4:7],3,3,
3,3,3,3,
{8}3,4,{4}5/2h[2:3],4,4,
4,4,4,{8}4-8[8:1],4,
3,2,{4}1/7h[4:7],1,1,
1,1,1,1,
{8}1,7,{4}8-4[8:1]/1-5[8:1],{16},,,,8x/2x,,,6x/1x,
,,{8}7x-3[8:1],{4}3x,E4/D4,E5/D5,
E6/D6,4/5-1[8:1],{8}4/5,3,2/8,{16}1,7,
{8}1,7h[8:1],8,{16}6,5,{8}7V51[4:1],4,3,2x,
{4}2xh[4:1],{32}E2,B1,B8,E8,,,,,E4,B4,B5,E6,,,,,{8}7/5x,{16}6pp5[4:1],5,
{8}6,4,3>1[8:1],3,4-7[8:1],4,1x,8b,
{4}8b,7-4[8:1]/1-5[8:1],1/7,{8}5x/3,{16}6,4,
{8}6,5h[8:1],4,{16}3,4,{8}2V48[4:1],5,6,7x,
{4}7xh[4:1],{32}A8,D1,A1,D2,{8}A2,{32}A7,D7,A6,D6,{8}A5,4x/2,5x/3,
6x/4,7x/5,8/1,3/4,8/1,6/5,{4}8<5[8:1]/1>4[8:1],
,5xh[4:7]/7h[4:7],,,,,,,,4h[4:7]/3h[8:15],
,,,,,,,4h[4:7]/6h[4:7],
{8},,,,,,,,,,,,,5/3,
{4}5h[8:7]/3h[8:7],,,,6/B5,
3/B4,6/4,
5/3,5/7b-2[8:1],4,5/7-2[8:1],
4,{8}3>1-5>4[8:3],3,4,5,{4}6h[4:1],
{8}3,5/3-5[8:1],,6,{4}7-4[8:1],2-5[8:1],
8V61-5[8:3],3,3,{8}3,2/4,
3/5,6/4,{4}7/5b-1b[8:1],{16},,,,8h[8:1]/2h[8:1],,,7h[8:1]/1h[8:1],
,,{8}2h[8:5]/8V26[4:1],,,,,{4}6x,
{8}5/7,7/5>2[8:1],,6,5,4<7[8:1],2,3,
4,5,5/6,7/8,2/1,4/3,{4}6/5w1[8:1],
,3/7qq2[1:1],,4,
,3,{16},,,,7x/1x,,,3x/4x,
,,{8}2x/6x,{4}7x/8xqq7[2:1]*pp8[2:1],{8},,,,,7x/1x,
,2x/8x,7x/3x,2x/8x,{4}7x-4[8:1]/3x-8[8:1],
7x/3x,{8}5b/1b,6,7,8,1-5[8:1],1,
8-4[8:1],8,7-3[8:1],7,6-2[8:1],6,{4}5h[4:1],
{8}1,8,7/1,5,7/1,5,2/8,4,
2/8,4,5<8[8:1],6,4>1[8:1],3,{4}5w1[8:1],
,3/7-3[8:1],7b,{8}1,2,
3/4,5,6pp7[4:1],6,4>1[8:1],4,,6,
5,4,2/1,{16}3,1,{8}3,2/8,7/1,{16}6,8,
{8}6,7/1,{4}2/8<5[8:1],8>3[8:1],8w4[8:1],
8,{8}7-5[8:1],1-4[8:1],7,1,8-4[8:1],2v5[8:1],
8,2,7-4[8:1],1-5[8:1],7,1,8p4[8:1],2>5[8:1],
8,2,{4}1V75[4:1],5V31[4:1],1s5[4:1],
5,{8}4,3,2-5[8:1],1,{4}2/8<5[8:1]*>3[8:1],
8,{8}4>1[8:1],6<8[8:1],4,6,3-8[8:1],5-7[8:1],
3,5,4-8[8:1],6,4,7,7/8x,7/8x,
6/1,1/6,5/2,{16}3,4,{8}2,5/3,6/4,{16}6,5,
{8}7,8,{4}2-4[8:1]/1-5[8:1],1-7[8:1]/2-6[8:1],2-4[8:1]/1-5[8:1],
1/2,{8}5x>2[8:1]/6xpp1[2:1],7x,5bx/A6f/E6/E7,,,2,
{4}2<6[4:1],6V82[4:1],{8}4h[8:3],,,3,
4,5,6/4,6,5/3,3,7/5,6,
2/4,1-5[8:1],,1,{4}6z2[4:1],6h[4:1],
{8},,5<8[8:1]/1pp4[2:1],4/8,5bx/A1f/E2/E1,,,8,
{4}8>4[4:1],4p8[4:1],{8}5h[8:3],,,7,
6,5,3/4,2,5/6,7,4/2,1,
7/5,8<5[8:1]*>3[8:1],,8b,,6x/2xz6[4:1],{4}6x/2xh[8:3],
{8},,5<7[8:1]/4q8[8:1],3/6,D5f/A5/A4,,,8/1,
2,3,4/5,6,{2}5h[2:1]/7-4V61[8:3],
{8},,2V84[4:1],2,8,7,6V48[4:1],6,
4,3b>8[8:1],,3/7,{4}7-5[8:1],7-3[8:1]/8-3[8:1],
7/8,{8}5-1[8:1]/4-8[8:1],3/6,D5f/A5/A4,,,7/8,
1,2,3/4,5,{2}6h[2:1]/4-7V51[8:3],
{8},,5pp5[4:1],5,3,2,1pp1[4:1],1,
8,7-5[8:1]*-4[8:1],,7-2[8:1],,7,{4}4b,
{32}5x/1x,6x/2x,7x/3x,8xv5[8:1]/4xv1[8:1],{1},{4},,{16},,6x/4x,
,,5x/3x,
,,{8}8x/1x,{4}2x/7x>4qq5[2:1],{8},,,,,6x/4x,
,8x/2x,3x/7x,8x/2x,{4}7x-4[8:1]/3x-8[8:1],
,5xh[4:11]/C,E6,E4,
E7,E3,E8,E2,
E1,D8,D2,D7,
D3,{8}E6/D6,E4/D4,E7/D7,E3/D3,{4}Cfh[4:3],
,1-5[8:1],1b,{8}6,7/5,
4,3/5,2pp4[8:1],2,1<6[8:1],1,3,2,
1/4,5,6-3[8:1],7,6/8-5[8:1],1,8/2-7[8:1],3,
2/4-8[8:1],5,{4}2x/4x>1[8:1],6/4<7[8:1],3/4-8[8:1],
4/5,{8}6-8[8:1],1-5[8:1],6,1,7>1[8:1],2v5[8:1],
7,2,6-8[8:1],1q5[8:1],6,1,7pp1[8:1],2>5[8:1],
7,2,{4}8p3[4:1],3p6[4:1],6p1[4:1],
1,{8}2,3,4/5,6,{4}7/8>3[8:1]*<5[8:1],
8,{8}4>1[8:1],8-5[8:1],4,8,3v8[8:1],7<4[8:1],
3,7,1-5[8:1],5,1,6,6/5x,5x/6,
7/4,4/7,8/3,{16}2,1,{8}2,{16}8,1,{8}8,{16}3,1,
3,1,{8}4q5V71-3b[4:3],{4}B8/B1/E1f,,,,4/8-5[8:1],
8/5-8[8:1],5x/4,
{8}3,1/2<6[4:1],,6,5,4,{4}3-5[8:1]*-1[8:1],
,8>4[4:1],4<8[4:1],8V24[4:1],
4,{8}5,6,7,8,2/1-5[8:1],3b,
{4}4b,3-6[8:1],3/6-3[8:1],6x/7,
{8}8,2/1<4[4:1],,4,3,2,{4}1-5[8:1]*-6[8:1],
,7/4>8[4:1],8<4[4:1],6h[8:3],
{8},3-8[8:1],,3/4,5,6,{16}1xh,7xh,1xh,7xh,
{4}1bx-4[8:1],1/4-1[8:1],4x/1x-5[8:1],1x/8x,
{8}6/5x,7qq8[4:1],,8q4[8:1],1,2,{4}3<6b[8:1]*>8[8:1],
3x,7-4[8:1],3-8[8:1],{8}5,6,
7,1/8q6[4:1],,1,2,3,{16}4,5,4,5,
{4}4-8[8:1],4/8-5[8:1],8x/5x-1[8:1],5x/2x,
{8}3,4/2qq8[16:3],,8>4[16:3],7,6,{4}5w1[8:1],
5,{32}7x/3x-7[8:1],4x,5x,6x,7x,8x,1x,2x,{4}3x,5bp8<5[8:5]/1bp4>1[8:5],
,,,E7/B7/B6,
{1}E3/B2/B3,
E
