&title=月の椀
&artist=sakanaction
&first=0.322
&des=lemonix
&lv_5=14.0
&des_5=lemonix
&inote_5=
(132){32}A2,D3,A3,D4,A4,D5,A5,D6,A6,D7,A7,D8,A8,D1,A1,D2,A2/A6,D7,A7,D8,A8,D1,A1,D2,A2,D3,A3,D4,A4,D5,A5,D6,
{8}3h[4:1]/6h[4:1],,,6h[4:1]/3h[4:1],,,{4}3h[4:1]/6h[4:1],
{8},6h[4:1]/3h[4:1],,,{4}5-7[16:1]/4-2[16:1],5/4,
{8}5h[4:1]/4h[4:1],,,5h[4:1]/4h[4:1],,,{4}5h[4:1]/4h[4:1],
{8},5h[4:1]/4h[4:1],,,{4}3-6[16:1]/7-2[16:1],3/7,
{8}2h[4:1]/7h[4:1],,,2h[4:1]/7h[4:1],,,{4}2h[4:1]/7h[4:1],
{8},2h[4:1]/7h[4:1],,,{4}1-5[16:1]/8-4[16:1],1/8,
{8}3h[4:1]/7h[4:1],,,2h[4:1]/6h[4:1],,,{4}7h[4:1]/3h[4:1],
{16},,2-6[16:1],1,{8}8-4[16:1],2,8-6[16:1],2-4[16:1],8,2b,
{4}B7,4<8p4[8:11],{8},3,2,2,
,2,A3,2,3,3,2,2,
{4}C,6h[8:5],{8},2-4[16:1],1,2,
,6-8[16:1],,6,{4}2x-6[8:1],{8}2,5,
{4}B8,3,{8},1-5[16:1],2/8h[8:1],1,
,6h[4:1],B2,3,{4}5,{8}2qq8qq6qq4qq2[4:7],5h[8:1],
{4}2,6,{8},A8,A7,A6,
,,{4}6,{8},,5-7[16:1],B3,
{4}5,3,{8},6p4[4:3],2,6,
,2,3,E3,2,A3,5,6,
{4}3h[8:7]/6xh,7,{8},5-8[8:1],6,5V31[8:1],
,5,,6,{4}6>4[16:1],{8}6,2,
{4}3h[8:5]/7<5[16:1],7,{8},8V64[8:1],,3/8-2[16:1],
,8/5h[8:3],,2,{4}8h[4:1],{8}7<5[16:1],3,
{4}7,6xh[8:5],{8},3,2,1-4[8:1],
,,{4}E7,{48},,,,,,7/2h[24:1],6,{24}5,,,,,1,{48},{16}2,
{8}3,{16}5-2[16:1],6,{8}7h[8:1],5,,4/5-7[4:1],4,4h[8:3],
,,8-3[16:1],6h[4:1],8-6[16:1],2x,8,3,
7h[4:1],{16}2,3,{8}4,6h[2:1]/B3,,2,3,4-7[16:1],
,4/2-4[16:1],,2,{4}6-8[16:1],{8}6,2,
8h[4:1],{16}1-6[16:1],2,{8}3,4/1-3-5[8:1],,6/1-7[16:1],,4/1>4[8:1],
,1/6<1[8:1],,6,{4}2>5[8:1],{8}2,6,
4h[4:1],{16}7,6,{8}5,B6/B3,7h[4:1],{16}1,2,{8}3,6-4[16:1],
,6/2,,3h[4:1],{16},,6,4,5,3,6,4,
{8}5,{16}2/7-1[16:1],3,{8}4,7-5[16:1],,7/2-6[16:1],1,2/7<2[4:3],
,7,1,8,7,6,5,4,
3h[4:1],{16}6,6,{8}6,7/4,5,3/8-4[32:3],,8/2-6[32:3],
,2/5-8[32:3],,5/3,{4}3-8-3[16:3],{8}6,5,
6,{16}1-6[16:1],2,{8}3,1/4,,4-7[8:1],7-2[8:1],4,
,6,3-7[8:1],4/6,{4}3,{8}4/8,8/4<6[8:1],
8,{16}4/8-5[16:1],1,{8}2h[8:1],8,3,6/3,3/6,7/2,
{32}A7/A2,D7,A6,D6,A5,D5,A4,D4,A3,D3,A2,D2,A1,D1,A8,D8,A7/A3,D4,A4,D5,A5,D6,A6,D7,A7,D8,A8,D1,A1,D2,A2,D3,
{8}6/A3,{16}7,6,{8}5-2[16:1],4/7h[8:1],5,7,8,1-4[16:1],
,3x/1-6[16:1],,7x/1-4[16:1],,1x/3-7[8:5],,6h[4:3],
,,,,,8,1,2-4[16:1],
,2x/6-2[16:1],,6x/3-8[16:1],,3x/5-8[8:5],,2h[8:7],
,,,,,1,8,7-4[16:1],
,7x/1V35[8:1],,1x/8-6[16:1],,8x/3h[8:3],,5<8[16:15],
{4}5,{8},,,,1,3,
,2,6/2,6/2,6/2,7/3,4-1[16:1]/8-5[16:1],7/3,
{4}4b/8b,7/3,{8}7/3,6/2,1-4[16:1]/5-8[16:1],6/2,
{4}1b/5b,2/6,{8}2/6,3/7,8/4,4/8,
{4}4b/8bw4[16:1],8/C,{8}2,1-5[16:1],,1/6>2[8:3]*>5>4>3>2[8:3],
,1,8,7,6,A7,A6,A5,
,1-4>2[8:1],7-5[16:1],1,7,,,3<7[8:1],
7>3[8:1],3,A7,6h[4:1],{16},,4,6,3,5,2,4,
{4}2-4[16:1],{8}2,5-7[16:1],,5>2[8:1],,5/7,
,3,5,7,6/3,2/7,1-4[16:1]/8-5[16:1],3/6,
{4}1b/8b,3/6,{8}7/2,6/3,4-8[16:1]/5-1[16:1],2/7,
{4}4b/5b,7/2-5[16:1],{8}2,7,3,8<5[8:1],
4,8,{4}4>1[8:1],{8}4,7<5[16:1],,7-1[16:1],
,7/3,4,7/4,6/3,6/3,5/2,5/2,
,2<7[8:1],7-3[8:1],2,{4}6,{8}B6,7,
{24}4,5,4,5,4,5,3,6,3,6,3,6,2,7,2,7,2,7,1-5[16:1],8,1,8,1,8,
{4}1b-7[16:1],{8}1/3,4>2[16:1],,4,{4}6h[4:1],
{8}2h,2h[4:1]/6h,,6h,{4}2-7[16:1]/6-3[16:1],6/2,
{8}6h[4:1]/2h[4:1],,,2h[4:1]/6h[4:1],,,{4}7h[4:1]/3h[4:1],
{8},6h[4:1]/2h[4:1],,,{4}7-4[16:1]/2-5[16:1],2/7,
{8}7h[4:1]/3h[4:1],,,6h[4:1]/2h[4:1],,,{4}6h[4:1]/2h[4:1],
{8},1h[4:1]/7h[4:1],,,{4}2-6[16:1]/8-4[16:1],2/8,
{8}3h[4:1]/6h[4:1],,,3h[4:1]/6h[4:1],,,{4}2h[4:1]/7h[4:1],
{16},,1,2,{8}3/5-1[16:1],4/7-3[16:1],5,7-5[16:1],1,7b,
C,,,,,3/6,2/7,1h[4:1]/8-4[8:1],
,8,2-7[32:3],5,2>4[16:1],5,2,6h[1:1],
,,,,,3,3,3>8[8:1],
,3/7<4[8:1],,7,{4}2<7[8:1],{8}2,6h[1:1],
,,,,,4h,3h,2h,
,6<1<6[4:1],,3,{4}3<5[16:1],{8}3,7h[4:5],
,,,,,B5,B3,B1,
,2,{16},6/3,,,{8}4/5,{16}6,6,{8}6-8[16:1],3,
6x,,,,,4,3,8/2>7[2:1],
,1,1,2,3,4,3,3/6,
,,,,,4,3,2-8[16:1]*-4[16:1],
,2-6[16:1],,2/5h[8:3],{4}7-2[16:1],{8}7,6,
,,,,,1-5[16:1],,1/7-3[16:1],
,7/2<7[8:1],,2,{4}6>3[8:1],{8}6,2,
{4}C,{8}3,B6,,3,6h[8:5],4,
,3,,2,{32}2,3,4,5,6,7,8,1,2/6,5,4,3,2,1,8,7,
{8}6h[4:1],{16}2,3,{8}4,7/3,,6/3,7/2,8/1-5[16:1],
,1/8-4[16:1],,1-3[16:1],,8-6[16:1]/1>5[8:5],,8,
,,,,,7,6,4/5-1[16:1],
,4-7[16:1],,4/5-2[16:1],,5/4-8[8:5],,6h[1:1],
,,,,,1,2,3-5[16:1],
,3/7-1[16:1],,7/3-7[16:1],,3/6>1[1:1],,7,
{4}7,{8},,,,7,7h[4:1],
,2,7/2,7/2,{32}7/2,3,4,5,6,7,8,1,2,3,4,5,6,7,8,1,
{8}2h[4:1]/6h[4:1],,,6h[4:1]/2h[4:1],,,{4}6h[4:1]/2h[4:1],
{8},6h[4:1]/2h[4:1],,,{4}4h[8:1]/8h[8:1],6h[8:1]/2h[8:1],
{8}5h[4:1]/4h[4:1],,,5h[4:1]/4h[4:1],,,{4}6h[4:1]/3h[4:1],
{8},6h[4:1]/3h[4:1],,,{4}7h[8:1]/4h[8:1],5h[8:1]/2h[8:1],
{8}7h[8:11],B5,B3,B1,C,,,E6,
E4,E2,C,2h[4:1],{16},,8,2,7,3,6,4,
{8}5h[4:1],,,6h[4:1]/4h[4:1],,,{4}7h[4:1]/3h[4:1],
{8},7h[4:1]/3h[4:1],{48},,,,,,,,,,,,2h/7h[24:1],3,{24}4,{48},,,,,,,,7h/2h[24:1],6,{24}5,,,,,{8}6h[4:1]/3h[4:1],
,,6h[4:1]/3h[4:1],,,{4}7h[4:1]/2h[4:1],
{8},7h[4:1]/2h[4:1],{48},,,,,,,,,,,,6h[24:1]/1h,2,{24}3,{48},,,,,,,,3h[24:1]/8h,7,{24}6,,,,,{8}6h[4:1]/3h[4:1],
,,6h[4:1]/3h[4:1],,,{4}5h[4:1]/4h[4:1],
{8},5h[4:1]/4h[4:1],,,5/4,5/4,6/3,6/3,
{16}2,3,4,5,3,4,5,6,4,5,6,7,5,6,7,8,
6,7,8,1,2,3,4,5,{32}6/2xh,3x,4x,5x,8xh,7x,6x,5x,1x-5[16:1],2x,3x,4x,8xh,7x,6x,5x,
{4}1b-7[16:1]*-3[16:1],1,{32}7xh,6,5,4,1xh,2,3,4,8x-4[16:1],7,6,5,1xh,2,3,4,
{4}8b-2[16:1]*-6[16:1],8,{32}2xh,3,4,5,8xh,7,6,5,1xh,2,3,4,8xh,7,6,5,
{8}2h[4:1],{48}7xh,6,{12}5,7bx-4[16:1],{24},,,,{8}7,1-3[16:1],{32},,,,1h/8h,7,{16}6,
,,{8}6/3,7/2,8/1,{32}1,2,3,4,5,6,7,8,1,2,3,4,5,6,7,8,
{8}1-5[16:1],7-3[16:1],1,7,2,,,2>6[8:1],
6<2[8:1],2,,6h[4:1],{32},,,,1xh,2,3/7xh,6,5/2xh,3,4/8xh,7,6/1xh,2,3/7xh,6,
{4}5-2[16:1],{8}7/5,8w4[16:1],,8,,7<4[16:1],
2,7,3,2/6,{32}5x/1xh,2,3,4,5/1xh,6,7,8,1x-5[16:1]/5x-1[16:1],2,3,4,5/1xh,6,7,8,
{4}5bx-3[16:1]/1bx-7[16:1],5/1,{32}8xh/4xh,7,6,5,4/8xh,3,2,1,8x-4[16:1]/4x-8[16:1],7,6,5,4/8xh,3,2,1,
{4}4bx-6[16:1]/8bx-2[16:1],4/8,{32}2xh,3,4,5,8xh,7,6,5,1xh,2,3,4,8xh,7,6,5,
{8}3,{48}7xh/4xh,6/3,{12}5/2,1bx-5[16:1],{24},,,,{8}1,8<6[16:1],{32},,,,8h/1h,2,{16}3,
,,{8}5/4,5s1<8z4[2:1]/4z8>1s5[2:1],5/4,,,,,,3/7,
1w5[16:1],2/8,1,,,2/5,
7/4,6/3,{32}3,2,1,8,7,6,5,4,3,2,1,8,7,6,5,4,{8}3/6<8[16:1],1/5,
{4}6/2-5[16:1],{8}2,6-1[16:1],,6/3h[8:3],{16},,,,,4,
5,6,7,8,1,2,3,4,{8}5,2/7-5[16:1],8,
{4}7/2V46[8:1],{8}2,8-4[16:1],,8/6h[8:3],{16},,,,,5,
4,3,2,1,8,7,6,5,{8}2,7-2[16:1],3,
{4}7/3-6[16:1],{8}3,8<3[8:3],,2h[8:3],{16},,,,,,6,
3,5,4,6,3,5,4,7,2,6,3,7,2,
{8}6h[4:1]/3h[4:1],,,6h[4:1]/3h[4:1],,,{4}6h[4:1]/3h[4:1],
{16},,7/2,7/2,{8}2/7,6/3,4/5,4-8[16:1]/5-1[16:1],3/6,4/5,
E
