&title=Nightmare before oversleep
&artist=猫叉Master
&first=-0.185
&des=Noka
&des_5=
&lv_5=14
&inote_5=(190){4},{2},{4}2>6[2:1],
,6<2[2:1],,2>5[2:1],
,5<8[16:9],,{16},8>4[16:11],{4},,{8},{2}4pp5[2:1]*qq3[2:1],
{4},,{8}1,7,{4}8h[2:1],
,5h[2:1],,4h[2:1],
,1h[2:1],,3h[2:1],
,6h[2:1],,4h[2:1],
,5,2>5[8:1],2/1qq1[2:1],
,5,4,1/3pp4[2:1],
2,1,8,3/7pp6[2:1],
,4-8[8:1],,5h[2:1],
,8h[2:1],,1h[2:1],
,4h[2:1],,7h[2:1],
,2h[2:1],,8h[2:1],
,1,3-8[8:1],3/4pp3[2:1],
,8,1,4/2qq2[2:1],
3,4,5,2/6qq1[2:3],
,,,2pp5[2:1],
,,,7h[4:1],
{8}5,8,{4}3h[4:1],{8}5,2,7h[4:1],1,
4,6,{4}3h[4:1],1,7h[4:1],
{8}1,6,{4}3h[4:1],{8}2,5,3-5[8:1],5-2[8:1],
{4}3,7-3[8:1],7/8,2-5[8:1],
{8}2/5,7-4[8:1],8,7,{4}1,{8}2-5[8:1],5-1[8:1],
{4}2,4-7[8:1]*-1[8:1],4,{16}8,1,4/2,5,
{8}6,{16}1,2,5/3,6,{8}7,{16}2,3,4/6,7,{8}8,{16}3,4,
7/5,8,{8}1,{4}4/8<5[8:1],2/8,{8}2-4[8:1],4,
2,7-5[8:1],5,7,1-4[8:1],4,1,8-5[8:1],
5,8,2-6[8:1],4,2,8,7<5[8:1],5,
7,2>4[8:1],4,2,1-5[8:1],5,1,8-4[8:1],
4,8,7,3,{16}5,4,5,4,{8}8-6[8:1],6,
8,1-3[8:1],3,1,7-4[8:1],4,7,2-5[8:1],
5,2,8-3[8:1]*-4[8:1],6,{4}8,{8}2/5,3,
4,5/8,7,6,5/3,4,5,{16}6/4,3,
2,1,5,6,7,8,3,2,1,8/7,6,5,{8}4/2b-4[8:1],1,
2,7-5[8:1],8,7,4v1[8:1],1,4,5v8[8:1],
8,5,2V46[16:3],1,2,7,8-2[8:1],5,
8,3-7[8:1],4,3,6-4[8:1],8,6,2-4[8:1],
5,2,8,5,{16}7,6,7,6,{8}8-4[8:1],4,
8,2-6[8:1],6,2,8<5[8:1],5,8,1>4[8:1],
4,1,8-4[8:1]*-5[8:1],5,{4}8,{8}3/6,5,
4,3/8,4,5,6/1,5,4,{16}3/1,8,
7,6,2,3,4,5,8,7,6,5/4,3,2,{4}1/6b-8[8:1],
6-3[8:1],1,2-8[8:1],2-5[8:1],
7,6-4[8:1],6-2[8:1],3,
1-5[8:1],6-4[8:1],2-4[8:1],5-1[8:1],
6-2[8:1],7-3[8:1],1-5[8:1],{8}5,6,
7,8,{4}1/2b-6[8:1],7b-4[8:1],7b/8b,
{8}2,2,2,4,4,{16}4,5,{8}7,7,
7,3,3,{16}3,4,{8}2,2,2,6,
6,{16}6,5,{4}8-4[8:1],8/3-5[8:1],3/7-5[8:1],
7/4-8[8:1],4/3-7[8:1],3/2-6[8:1],2/8-4[8:1],
{8}4/8,3,2,1,8/7p4[8:3],{4},{8}2qq5[8:3],
{4},6pp3[8:3],{8},4qq6[8:3],{4},{8}1bqq5[8:3],
{4},{8}4bqq8[8:3],{4},6bqq7[8:3],
{8},1b,{4},{16}1b/6b,2,3,4,{8},{16}3b/8b,7,
6,5,{8},{16}1b/6b,2/7,3/8,4/1,{8},{16}3b/8b,7/2,6/1,5/8,,,{24}1b<6[8:1],
2,3,4,{16},{48},{8}1b,{24}3b<6[8:1],2,1,{8}8,3b,{24}1b<6[8:1]*p5[8:1],2,3,4,{16},{48},{4}1b>4[8:1]*q5[8:1],
1b,{1}1?s5[8:5]/7?z3[8:5],{2},{4}8/2V48[16:3],
2/7-5[8:1],7-2[8:1]*-3[8:1],7,
8>4[8:1],{8}8,5h[4:1],{16}6,7,8-5[8:1],1,{8}2,8/4,
{4}2-5[8:1],2/8-4[8:1],8/1-5[8:1],{8}1,7,
8-4[8:1],8,2>5[8:1],2,{16}6,7,8,1,6,7,8,1,
{8}2qq8[16:3]/6qq4[16:3],{4},,{16}1/5,2/6,3/7,4/8,1/5,2/6,
{8}7<4[16:3]/3>8[16:3],{4},,{16}7/3,6/2,5/1,4/8,{8}3/7,
1/5,6,2,8/4,3,7,{24}2,3,4,7,6,5,
{4}2V48[16:3],2/7-4[8:1],7-2[8:1]*-1[8:1],7,
8>4[8:1],{8}8,5h[4:1],{16}6,7,8-4[8:1],1,{8}2,8/4,
{4}3>8[8:1],3/4v7[8:1],4/6p2[8:1],{8}6,8,
1-5[8:1],1,7<4[8:1],7,{16}3,2,1,8,3,2,1,8,
{8}7pp1[16:3]/3pp5[16:3],{4},,{16}8/4,7/3,6/2,5/1,8/4,7/3,
{8}2>5[16:3]/6<1[16:3],{4},,{16}2/6,3/7,4/8,5/1,6/2,3/7,
{8}8<5[8:1]/4>1[8:1],{4},,{16}4/8,3/7,2/6,1/5,{8}8/4,
{16}2,5,3,7,4,6,2,5,3,7,4,6,2,5,3,7,
1,2,8,7,2,3,7,6,4,5,4,5,3,6,3,6,
3,4,6,5,2,3,7,6,1,8,1,8,2,7,2,7,
2,3,7,6,3,4,6,5,1,8,2,7,1,8,3,6,
{24}1b,2,3,4,5,6,1b,8,7,6,5,4,8b,1,2,3,4,5,1b,8,7,6,5,4,
{16}1,3,1,3,2,4,2,4,1,8,5,6,2,1,4,5,
3,6,3,6,4,7,4,7,5,6,8,1,4,5,7,8,
2,6,2,6,4,8,4,8,3,2,7,6,4,3,8,7,
{24}2b,3,4,7b,6,5,2b,3,4,7b,6,5,{32}1b,2,3,4,8b,7,6,5,1b,2,3,4,8b,7,6,5,
{1}1h[4:3],
5b<5[2:5]/1b>1[2:5],
,,1bqq6[4:13]/5bqq2[4:13],
