&title=STAGER
&artist=Ras
&first=0.04
&des=Leopard
&lv_5=14
&inote_5=(146){1},
{16}2/C,,,17,,,6v4[8:1]/C,,,,
{16}8,,,8,,,68,,,1/C,,,2/4-2<8[8:1],,,,
{16}4,,E7,E6,E5,,
{16}1,,,7/C,,,4/6-2[8:1],,,,
{16}6,,,4,,,15,,,37,,,1<7-3[4:1]/5,,,,
{16}1,,A4,A5,A6,,
{8}2x-5[8:1]/8x-5[8:1],,28,,,2-6[8:1],6,,
{8}8w4[8:1],,8,,,7-4[8:1],{16}6,1,7,,
{8}3-8[8:1]*v6[8:1],,3,,,7<4[8:1],3,,
{8}1b,{16}3,5,1h[8:1],,7,5h[8:1],,
{32}1,2,3-7[8:1],4,5,,{16}1b,,3,6,
{16}6,,,2,34,,8,,46,,7,,25,1,,,37,,,6,15,,3,,26,5,3,,38,4,7,,
{16}17,,,2,14,,6,,18,,2,,37,5,,,
{16}36,,5,3,7h[8:1],,4,1h[8:1],,{32}5,4,3-7[8:1],2,1,,{16}5b,,3,6,
{16}6-2[8:1],,,1,8-3[8:1],,8,,5-1[8:1],,7,,4-7[8:1],3,,,
{16}4/2v5[8:1],,,6,5-3[8:1],,7,,8-2[8:1],7,6,,4,5,6,,
{16}8-4[8:1],,,3,2-8[8:1],,2,,6-4[8:1],,6,,7pp3[1:1],8,,,
{16}5b,,1x,5,2,6,3,7,4,,,,,,,,
{16}1-6[8:5],,,5,,4-8-3[8:3],7,3,6,,,,,,,,
{16}8-3[8:5],,,4,,5-1-6[8:3],2,6,3,,,,,,,,
{16}1-6[8:5],,,7,,4-8-3[8:3],5,3,7,,,,,,,,
{16}7-3[8:1],8,1,,2,1,8,,
{16}5-7[16:1],5-8[16:1],3-8[16:1],3-1[16:1],,,,,
{16}6-3[2:1],,,1,,2-5-1[4:1],7,1,6,,,,,,,,
{16}1-4[2:1],,,6,,5-2-6[4:1],8,6,1,,,,,,,,
{16}2-7[2:1],,,3,,6-1-5[4:1],4,5,3,,,,,,,,
{16}1-5[8:1],2,3,,6,7,8,,
{16}4>2[16:1],4-1[16:1],8-5[16:1],8<6[16:1],,,,,
{16}3b,,8,2,6,5,1,2-6[8:1],5,3-8[8:1],1,2x,,3x,,,
{16}4b,,2,7,3,4,8,7-3[8:1],5,6-1[8:1],1,7x,,6x,,,
{16}5b,,2,1,4,6,8,7-4[8:1],4,1-5[8:1],2,7x,,1x,,,
{32}8b,,3,,7,6,5,,1,,6,,2,3,4,,
{16}6<8[16:1],6-1[16:1],4-1[16:1],4>2[16:1],,,,,
{16}5b,,1,4,2,6,8,7-3[8:1],4,5-2[8:1],3,7x,,5x,,,
{16}6b,,1,5,3,7,2,1-6[8:1],3,4-8[8:1],2,1x,,4x,,,
{16}5b,,2,4,1,6,3,7-4[8:1],2,5-1[8:1],4,7x,,5x,,,
{32}6b,,3,,7,8,1,,5,,8,,4,3,2,,
{16}7-5[16:1],7<4[16:1],3-1[16:1],3>8[16:1],,,,,
{16}6b,6,2,8,2,6,2,4v7[8:1],1,6-1[8:1],8,4x,,6x,,,
{16}8b,4,8,6,8,4,8,2-5[8:1],7,4v7[8:1],6,2x,,4x,,,
{16}1b,6,1,5,1,4,2,5v8[8:1],3,6-1[8:1],4,5x,,6x,,,
{32}5b,,8,,5,4,3,,1,,4,,1,8,7,,
{16}6>3[16:1],6-4[16:1],8-2[16:1],8>3[16:1],,,,,
{16}6b,5,1,2,4,3,7,8-3[8:1],6,5-2[8:1],7,8x,,5x,,,
{16}1b,8,6,7,4,5,2,3-6[8:1],1,8-5[8:1],2,3x,,8x,,,
{16}1b,8,2,3,1,8,6,7-2[8:1],1,8-5[8:1],2,7x,,8x,,,
{32}7b,,7,,1,2,3,4,8,,8,,2,3,4,5,
{16}1b-5b[16:1],8,7-3b[16:1],6,5/1b,,7b,,
{16}2-4[8:1],,,B5,2-6[8:1],,B8,,2-4[8:1],,B5,,2-6[8:1],B8,,,
{16}2-4[8:1]/B5,,,B8,2,,B5,,7,8,16,,2,1,38,,
{16}8-6[8:1],,,B5,8-4[8:1],,B2,,8-6[8:1],,B5,,8-4[8:1],B2,,,
{16}8-6[8:1],,2,2,8-4[8:1],,1,1,8-6[8:1],2,2,2,{32}8,,2,3,4,,,,
{16}5-2[8:1],,,4,5-8[8:1],,6,,5v2[8:1],,4,,5v8[8:1],6,,,
{16}5p1[8:1],,,4,5q1[8:1],,6,,5>2[8:1],4,4,,5,6,6,,
{16}7-2[8:1],,,5,7-3[8:1],,1,,7-4[8:1],,5,,7,1,,,
{32}1b,2,3,4,5-1b[8:1],,7b,6,5,4,3-7b[8:1],,
{16}5bx,,,3bx,,,1-3-5-7-1-7-5-3-1[1:2],2,3,4,
{4}1b/5,,,,,,,6-4-8-2-8-4-6[2:3],,,,,,,2-7[8:1]*z6[8:1],,
{16}7,,A1,,7,C,,,7/A5,,,A2,7,,B3,,7,A5,,,7/A3,,,E5,7,,1,,7/2,,3,3,
{16}3,,A8,,3,C,,,3/A4,,,A8,3,,B6,,3,A5,,,3/E8,,,A6,
{24}3b,2,1,8,7,6,3b,2,1,8,7,6,
{16}1b-5[8:1],,37,,4-8[8:1],3,,,2-7[8:1],,,6,5-3-7[8:1],,5,,
{16}1-6[8:1],2,,,4v7[8:1],,,2,1<6[8:1],,3,3,,2,2,,
{16}1bv3[8:1],,6,,8-4[8:1],7,,,5-2[8:1],,,8,1-7-5[8:1],,1,,
{16}2v4[8:1],3,,,8>3[8:1],,,5-1[8:1],8,,,5,,,2,,
{16}3b-7[8:1],,8,,6v4[8:1],5,,,2-5-8[4:1],,,1,2,,6,,
{16}4<7[8:1],3,,,1>4[8:1],,,5,4-1[8:1],,6,,8-4[8:1],,6,5,
{16}2b-6[8:1],,1,,5-2[8:1],4,,,7<4[8:1],,,1,2-7[8:1],,2,,
{16}6v4[8:1],5,,,8-3[8:1],,,7-4[8:1],6,,,7,,,2b,,
{16}1p5[8:1],,7,,3v5p8[4:1],4,,,7,,,7,6>4[8:1],,2,,
{16}8v2<1-6[4:1],1,,,4>3>2<1[8:1],,,5,4-8[8:1],,7,7,,6,6,,
{16}5b<8-6[4:1],,1,,2-4-8[4:1],3,,,2,,,5,6<1[8:1],,6,,
{16}3<6[8:1],2,,,8-4[8:1],,,4-2v3[16:3]*-6v5[16:3],3,,,,,,,,
{16}7b>2[8:1],,3,,4<7[8:1],5,,,1>4[8:1],,,5,6<1[8:1],,6,,
{16}3<6[8:1],2,,,8>3[8:1],,,4,5<8[16:3],,5,,5,4,3,2,
{16}1bv2[8:1],,7,,6v7[8:1],5,,,3v4[8:1],,,1,8v1[8:1],,,,
{16}1q8[8:1],,,,,,,,1b/3b,,,4b/5b,,,6b/8b,,
{16}34,,5/B1/B2,,4,A2/D2,5,,34,,5,B1/B2,4,,5/A2/D2,,
{16}34,,5/B1/B2,,4,A2/D2,5,,34,,5,B1/B2,4,,5/A2/D2,,
{16}87,,6/B2/B1,,7,A2/D2,6,,87,,6,B2/B1,7,,6/A2/D2,,
{16}87,,6/B2/B1,,7,A2/D2,6,,87,,6,B2/B1,7,,6/A2/D2,,
{16}45,,B1,,7,B3,6,,18,,2,B7,3,,B5,,
{16}54,,B8,,2,B6,3,,81,,7,B2,6,,B4,,
{32},,,,1b,2,3,4,5v2[16:1],,1b,8,7,6,5v8[16:1],,{16}5b,,,5b,,,
{32}1b,2,3,4,5-2[16:1],,1b,8,7,6,5-8[16:1],,{16}5b,,,5b,,,
{8}1w5[16:1],3/7,1,,,,,,,,,
