&title=stray whisper taker (Camellia Remix)
&artist=綾倉盟
&first=0
&des=USABI
&lv_5=14+
&inote_5=(140)
{1},,
{1},
{1},
{1},
{1},
{1}C,
{1}Ch[4:1],
{1}Ch[4:2],
{1}Chf[4:3],
{2}E2,E8,
{2}E6,E4,
{2}B2/B1,B8/B7,
{2}B6/B5,B4/B3/C,
{2}E1,E7,
{2}E5,E3,
{2}B8/B1,B6/B7,
{4}B4/B5,,B2/B3/Ch[8:1],Ch[4:1],
{4}E3,E2,E1/A1/A8/C,E8,
{4}E7/A7/A6/C,E6,E5/A4/A5/C,E4,
{4}E3/A3/A2/C,E4,E5/A4/A5/C,E6,
{4}E7/A7/A6/C,E8,E1/A8/A1/C,E2/Ch[8:1],
{16}B3,,A3,A4,A2,,D5,,B6,,A6,A5,A7,,D5,,
{16}B2,,A2,A1,A3,,D1,,B7,,A7,A8,A6,,D1,,
{16}A2,A1,A3,A8,A4,A7,A5,A6,7x,6x,8x,5x,1x,4x,2x,3x,
{48}1b/4b<1p4b[8:3],E2f/E5f,E3/E6,{16}E4/E7,{8},,,{12}3x,3x,3x,2x/4x,,,
{4}2-5<6-3[16:3]/6,2/1-7>8-6<7-5[12:4],{16}1b/2x,,B4,B3,B2,B1,B8,B7,
{24}6x-1-3[16:3]*-2-4[16:3],E6,B5,{8}B4,,,{16}5h[8:1],,E3,E4,C,E5,E7,E6,
{48}7x>2v1[16:3],,,{16},{8},7x/6x,,{24}2xw6[8:1],A1/3x,A8f/4x,{8}A7/5x<3[4:1],{4},
{8}8xb>1>3<4b[16:2]*<7<5>4b[16:2],,,,{16}8xqq8[16:3],,1,1x,,2,2x,,
{24}1xv6-3[16:3]/2x,8x/3x,7x/4x,{8}5x/6xq2b[16:1],1,,Chf[64:1],{16}E2,E1,E8,E6,E5,E4,
{8}3xh[8:1],{24}D2,D1,D8,2x,3x,4x,D6,D7,D8,{8}D1f/5bx<8-4>1b[8:2],,,,
{24}8,7,6,{8}5,{24}5-1[8:1]/1,2/E6,3/E7,{8}4/E8,{48}5xb/8xb,B8,Cf,B4,,,,,,4xb/1xb>7[16:3],B1,Cf,B5,,,,,,{8}3b/1b,
{8}E3,E2,E8,E7,{16}4x/6x,3,2,8x,7,6,1xh[64:7]/5xh[64:7],,
{48}E6/E2,B6/B2,B7/B3,{16}E8/E4/Chf[16:3],{8},{48}8-2<1-3>2-4[12:4],,,{16},,,8b/7x,,B5,B6,B7,B8,B1,B2,
{24}3x>8-5[16:3]*p7-4[16:3],E4,B4,{8}B5,,,{16}6h[8:1],,E7,E6,C,E5,E3,E4,
{48}2x<7v8[16:3],,,{16},{8},2x/3x,,{24}7xw3[8:1],A8/6x,A1f/5x,{8}A2/4x>6[4:1],{4},
{8}1xb<8-6>5b[16:2]*>2-4<5b[16:2],,,,{16}1xpp1[16:3],,8,8x,,7,7x,,
{32}6x,5,{16}4,2,8x,4/6,2,8x,,{48}2b/8b,37,4>1[12:1]/6<1[12:1],{16}5,{8},,,
{8}1q1[16:3],28,1>4[12:1],,{16}5<4[16:3],5h[16:3],,,{8},,
{32}8,7,6,5h[32:9]/4,{8},7,7,{48}7b/5,8x,1x,2x,,,,,,7b/4,8x,1x,2x,,,,,,7b/3,8x,1x,2x,,,
{4}2xb-8[12:1]/3xb-5[12:1],,{48}6b/8,5x,4x,3x,,,,,,6b/1,5x,4x,3x,,,,,,6b-1b[16:1]/2,5x,4x,3x,,,
{16}1x-5b[16:1],,,4x-1[16:1],,,2x,,E3f,,B3,,4-1-5[4:1],,5,,
{16}6p4-1[8:3],,,,7,,7>5[8:2],,,,,,D2,,6x,6x,
{16}5x/7xpp2p5b[8:4],,,,57,,,,E2,,E3,,3pp7>3[8:5],,4,,
{16}5h[4:1],,,,,,6h[4:1],,,,,,3/7h[4:1],,,,
{24}2,3,4,7,6,5h[24:4],{32}A6,A7,A8,A1,A2,A3,A4,A5,
{8}A6f/1bh[8:1],8h[8:1],7p4[4:1],6,5>6[8:2],,8,8h[8:1],,5h[8:1],4h[8:1],3h[8:1],
{4}2-6>4[8:1]*-4>3[8:1],2x-6<8[8:1]*-8>1[8:1],2x,8xp3>1[16:3]*q5<7[16:3],
{8}8x,,18,27,18,{16}56,56,,3>6[16:2]/4,34,,
{8}3b/Ch[16:6],,{16}7x,8x,1x,2x,{24}6x,7,8,1x,2,3,{32}5xw1[8:1],6,7,8,1,2pp7[8:3],3,4,
{16}5b,Cf,,,6,,6<4[16:4],,,,,,8x<5[8:1],,,,
{24}8-4-1[16:3]*-3-1[16:3],E8,E7,{8}E6,8,,E3,E4,4qq1p5[8:4],5,
{16}6h[4:1],,,,,,7h[4:1],,,,,,4/8h[8:1],,,,
{48}7x/4x,E7,B6/E6/B5,E5,,,,,2x/5x,E3,B3/E4/B4,E5,,,,,7x/4x,E7,B6/E6/B5,E5,,,,,{64}A1,B1,Cf,B5,{16}A5,6x,,7q2[4:1],,8,,
{16}1<3[16:4],,,,4,,4h[4:1],,,,2h[8:1],,1h[8:1],,8h[8:1],,
{4}7-4[8:1]*-5v3[8:1],7x-2[8:1]*-1v3[8:1],7x,1x-6v7[16:3]*-4v3[16:3],
{8}1x,,4x/5x,36,{16}7x/8x,16,,1x/2x,3q6[2:1]/8,7x/4x,5x/6x,,
{1}E1f,
{1}2q5[2:1],
{1}1q4[2:1],
{1}8q3[2:1],
{1}7h[1:2],
{1}6h[1:1],
{4},E8/E6,E1/E5,{8}E2/E4,23,
{8}2x/3x,4,1x/2x,3,{32}1x/8x,7,{16}6,4,2x,28,6,4x,,
{32}4b/6b,37,28,1,E1,E8,E7,E6,8x,7x,6x,5x-1[16:1],{48}D8,D7,D6,D5/8x,D4/7x,D3/6x,5x/D2f,,,,,,{8},{32}1x,2,3,4,E1,E2,E3,E4,
{4}E5/Ch[4:1],{32}E5,E4,E3,E2,4x,3x,2x,1x,5x-1[8:1],4,3,2,1,8,7,6,5/1,,,,,,,,
{48}2v5[8:1]/6v1[8:1],D2/D6,A5/A1,D5/D1,A4/A8,D8/D4,{8}A3/A7,{16}2b/6b,Cf,,,{32}5,4,3,2,8,7,6,5,E1,E8,E7,E6,E5,E4,E3,E2,
{4}Ch[4:1]/E1,{32}8,1,2,3,7,8,1,2,3/D8,4/D1,5/D2,6xh[8:1]/D3,,,,,{32}5,6,7,8,1,2,3,4,
{48}8x/5x,7,6,5,,,,,2x/5x,3,4,5,,,,,8x/5x,7,6,5,,,,,{32}5,4,3,2,4,3,2,1,E5,E4,E3,E2,E1,E8,E7,E6,
{4}Ch[4:1]/E5f,{32}5,6,7,8,1,2,3,4,{8}Ch[4:1]/5,5,6-2[8:1],7,
{8}6x/8h[4:1],,{32}2x,1,8,7,{48}3x,2,1,8,7,6,{4}1xh[4:1],{32}7x,8,1,2,{48}6x,7,8,1,2,3,
{8}8xb/4xb,57,1xb/5xb,24,{16}3b/7b,,48,2b/6b,,15,{32}3b/7b,8,1,2,
{32}3b/8xb>5p8b[4:7],B3f,C,B7,{8},{4},7x,,
{4},,7x,,
{4},,D7,,
{4},,A6,,
{4}5x>8q5b[4:7],,A5,,
{4},,A4,,
{4},,A3,,
{4},,A2,A1,
{4}E1/B1/B8,,E3/B3/B2,,
{4}E5/B4/B5,,E7/B6/B7/C,,
{4}E8/B7/B8,,E6/B5/B6,,
{4}E4/B3/B4,,E2/B1/B2/Ch[4:1],,
{1}Ch[4:2],
{1}Ch[4:3],
{1}Chf[64:1]/1bs5b[4:3],,E
