&title=Daphnis
&artist=Sobrem a.k.a. Widowmaker
&first=-0.38
&des=Cotel Lin - "The Scholar"
&lv_5=14+
&inote_5=(204)
{4},,,{16},,{32}1,2/8,3/7,4/6,
{16}5bh[4:1],,,,,,,,3/6,,,,{32}1h[2:1]/7,6,5,,,,,,
{16},,,,,,,,2/7,,,,{32}1h[2:1]/3,4,{16}5,,,
{16},,,,,,,,1/8,,,,
(198){32}1b/8b,2/7,3/6,5h[128:121]/4,,,,,,{4},,
(193){16}4,,3,,
(192){4}2h[4:2],,3h[4:1],4h[4:1],5h[4:1],6h[4:1],
(190){4}7h[4:1],
(175){16}8h[4:1],,,,1h[32:39],,,,
(185){16}2h[32:15],,,,,,,,
(192){32}D3,D4,{16}4xh[16:15],,,,,,,
(193){16},,,,
(196){16}5,,6,,7h[32:15],,,,1h[4:2],,,,
(194){32}D7,D6,{16}5xh[16:23],,,,,,,2h[4:2],,,,,,,,
{16},,,,2,,3,,4h[32:14],,,,6h[4:2],,,{32},D4,
{32}D3,2xh[32:47],{16},,,,,,,7h[4:2],,,,,,,,
{16},,,,8,,7,,6,,,,3/7,{16},,,
(197){16}1h[16:6]/5h[16:6],,,,,,,{32}2x/6x,3x/7x,{16}4xh[16:6]/8xh[16:6],,,,,,,{32}3x/7x,2x/6x,
(230){16}1x/5xh[16:8],,,,,,,,
(215){16}1b,,,,
(210){16},,,,
(204)
{16}4h[2:1],,,,,,,,6h[2:1],,,,,,,,
{16}8b,7,8,7,8,7,8,7,8,7,8,7,8,,,,
{16}5h[2:1],,,,,,,,3h[2:1],,,,,,,,
{16}1b,2,1,2,1,2,1,2,1,2,1,2,1,,,,
{16}4h[4:4],,,,,,,,6h[4:2],,,,,,,,
{16},,,,1,,2,,3/5h[4:1],,,,6h[4:1],,,,
{16}7h[4:6],,,,A1,,,,B8,,,,E7,,,,
{16}B5,,,,A4,,,,E3,,,,8,,7,,
{32}1h[4:1]/6,5x,{16},,,6,,,,1/7,,,,2,,,,
{32}8h[4:1]/3,4x,{16},,,3,,,,2,,,,1h[4:2]/5h[4:1],,,,
{16},,,,{32}5,6,7,,{16},,2,,,,4h[4:1]/8h[4:2],,,,
{16},,,,{32}4,3,{16}2,,,7,,,,1h[4:1]/5h[4:1],,,,
{16},,2,3,4,5,8,7,6,5,2,1,8,7,6,5,
{16}8,7,6,5,3,2,1,8,4,5,6,7,1,2,3,4,
{16}1h[4:6]/5h[4:6],,,,,,,,,,,,,,,,
{16},,,,,,,,,,,,3,,,,
{16}2b/8b,,,,1,2,8,7,1,2,8,7,1,2,3,4,
{16}8,1,2,3,7,8,1,2,5,6,7,8,1,2,3,4,
{16}1b/5b,,,,4,3,6,7,4,3,6,7,4,3,2,1,
{16}3,2,1,8,2,1,8,7,8,7,6,5,4,3,2,1,
{16}8b/4b,,,,1,2,6,7,1,2,6,7,2,3,5,6,
{16}2,3,5,6,3,4,6,7,3,4,6,7,3,4,6,7,
{16}5b/8b,,,,1,2,3,4,1/5,8,7,6,1/5,,,,
{16}3,4,3,4,3,4,3,4,3,2,1,8,1,8,7,6,
{16}1bh[4:4]/5b,,,,B4,,,,B2,,,,B8,,,,
{16}B6,,,,3/4,,2,,1/7h[4:1],,,,C,,,,
{16}6h[4:1]/5,,,,8,1,2,3,4,5,6,7,8,1,2,3,
{16}8bh[4:2]/4,,,,,,,,5,,4,,3/5,,6,,
{48}1x/7h[4:2],B1,C,{16},,,,,,,2,,,,{48}3h[4:3]/8x,B8,C,{16},,,
{16},,,,,,,,1,,,,1b/8h[4:6],,,,
{16},,,,B7`E8,,,,B1`E2,,,,E6`B5,,,,
{16}E4`B3,,,,C,,,,{32}1b/7b,2/6,3/5,4h[32:13],{16},,,,,,
{32},3/5,2/6,1/7,{16}8h[8:23],,,,,,,,,,,,,,
{1},,
{16}B3,E3,E6,B5,B1,E2,A7,E8,E5,A4,E7,B6,B2,E3,A8,E1,
{16}1xh[4:1],,,,,,1,,1/5h[4:1],,,,{32}7x,E7,B6,B5,B4,E4,,,
{16}8h[4:1],,,,{32}A1,D2,A2,D3,A3,D4,A4,D5,A5,D6,A6,D7,A7,D8,A8,,{16}1xh[4:1]/C,,,,
{32}2x,E3,B3,B4,B5,E6,,,{16}4h[8:3],,,,,,8,,7/3,,,,
{16}B2,B8,B4,B6,B1,B7,B3,B5,C,,,,3/7,,{32}E3/E7,B2`B6,B1`B5,E1`E5,
4xh[8:7]/8xh[4:6],,,,{16},,,,,,,,,,,,,,
{16}6h[4:6],,,,,,,,,,,,1,1x,1xh[4:1],,
{16},,,,1h[4:1],,,,,,3/5,,,,4,4,
{16}4,,{32}4h[4:1]/A3,D3,A2,D2,A1,D1,A8,D8,A7,D7,A6,D6,A5,E5,B4,B3,E3,,,,,,,,1,,,,
{16}1/7,,,,1,2,7,8,1,2,7,8,1,2,7,8,
{16}2,3,6,7,2,3,6,7,3,4,5,6,3,4,5,6,
{16}4h[4:1]/7h[4:1],,,,,,,,{32}5h[4:1]/3b,2,{16}1h[16:3],,,,,,,{32}8h[4:1]/6b,5,{16}4h[16:3],,,,,,,
{32}3h[4:1]/5b,6,{16}7h[16:3],,,,,,,
{16}1bh[4:11]/Ch[4:11],,,,,,,,,,,,,,,,
{16},,,,,,,,,,,,,,,,
{16},,,,,,,,,,,,,,,,
{32}B1,B2,B3,B4,B5,B6,B7,B8,{24}E1,E2,E3,E4,E5,E6,{16}A6,A7,A8,A1,A2,A3,A4,A5,
{16}A6/7h[4:1],,,,5,,5h[4:1]/6h[4:1],,,,,,4h[4:1]/2,,,,
{32}A1,E1,E8,A7,E7,E6,A5,E5,E4,A3,E3,E2,A1,E1,E8,A7,E7,E6,A5,E5,E4,A3,E3,E2,7xh[4:1]/A1,,,,,,,,
{16}5,6,5,7,5,,,,7,8,7,6,7,,,,
{16}3h[4:1]/5h[4:2],,,,,,,,1,2,3,4,5,6,7,8,
{16}1h[4:1]/5h[4:3],,,,,,,,4h[4:1],,,,,,,,
{16}E8/E4,,,,2,,3,,4h[4:1]/6,,,,7,,,,
{16}1h[4:1]/8h[4:2],,,,,,,,3h[4:2],,,,,,,,
{16}C,,,,4,,5,,6/4,,,,3/7,,,,
{16}2h[4:1]/8,,,,C,,,,,,,,5,6,7h[8:3],,
{16}3h[4:2],,,,,,,,E4,,,,E5,,,,
{16}E6,,,,1,2,3,4,8,7,6,5,E1,E2,E3,E4,
{16}E1,E8,E7,E6,A1,A2,A3,A4,A8,A7,A6,A5,C,,,,
{16}1/7,,,,6h[8:1],,4h[8:1],,3h[8:1],,2h[8:1],,8h[8:1],,7h[8:1],,
{16}5h[8:1],,4h[8:1],,6h[8:1],,2h[8:1],,7h[8:1],,3h[8:1],,8h[4:1],,,,
{12}2,3
,4,5,6,7,2,3,4,5,6,7,
{12}2,4,3,7,5,6,1,,,1/2h[4:1],,,
{16},,2/8,,7,6,3,4,7xh[16:1],6xh[16:1],3xh[16:1],4xh[16:1],7h[16:1],6h[16:1],3h[16:1],4h[16:1],
{16}7xh[16:1],6xh[16:1],5xh[16:1],4xh[16:1],3xh[16:1],2xh[16:1],7h[16:1],6h[16:1],5h[16:1],4h[16:1],3h[16:1],2h[16:1],1h[4:1],,,,
{16},,,,2h[16:3]/4h[16:3],,,,3h[16:3]/5h[16:3],,,,4h[16:3]/6h[16:3],,,,
{16}7h[4:3]/5h[4:2],,,,,,,,,,,,1,,2,,
{16}3/5h[4:3],,,,E6,,,,C,,,,E2,,,,
{16}6/4h[4:2],,,,B4,,,,B8,,,,1h[4:1]/5h[4:2],,,,
{16},,,,{32}1b,2,3,4,,,,,{16}5/7,,,,4h[4:2]/8h[4:1],,,,
{16},,,,{32}8b,7,6,5,{16},,4/3,,,,1/5h[4:3],,,,
{16},,,,2,,,,3,,,,4,,4,,
{16}6,,6,,2,3,4,5,8,7,6,5,1,2,3,4,
{16}1/5,,,6x/7x,6xb/7xb,,,6/5,6b/5b,,,4/5,4b/5b,,,3/4,
{16}3bh[4:2]/4bh[4:2],,,,,,,,,,,,1,,,,
{16}3b/7b,,,,6,5,6,5,6,4,6,4,5,4,5,4,
{16}5,3,5,3,4,3,4,3,6,2,6,2,7,1,7,1,
{16}2b/6b,,,,3,4,3,4,2,8,2,8,4,6,4,6,
{16}3,7,2,6,3,5,2,4,1,5,2,6,3,7,4,6,
{16}5b/3b,,,,1,7,2,8,3,7,4,6,3,7,2,6,
{16}1,7,2,6,3,5,2,4,1,5,2,6,3,5,4,6,
{16}3b/7b,,,,1/5,6,7,8,1/5,8,7,6,5/1,,,,
{16}3,4,2,5,3,4,2,5,2,3,4,5,7,6,5,4,
{16}3b/Cf,,,,4,5,4,5,3,6,3,6,{24}3x,4x,5x,4x,5x,6x,
{16}4xb/7xb,,,,E1/D1,,E3/D3,,{12}A5/A4/D5,,A7/D8/A8,,A2/D3/A3,,
{16}Cf,,,,1,8,1,8,2,7,2,7,{24}2x,1x,8x,1x,8x,7x,
{16}1xb/6xb,,,,E5/D5,,E7/D7,,{12}A1/A8/D1,,A3/D4/A4,,A6/D7/A7,,
{16}Cf,,,,,,,,2/5,3/6,4/7,5/8,6,7,8,1,
{16}2b/6b,,,,,,,,4/7,3/6,2/5,1/4,3,2,1,8,
{32}7b/3b,,,,,,,,,,,,,,,,7b/5b,4/6,3/5,,,,,,,,,,,,,,
{32}7b/5b,4/6,3/5,4/2,{8},,,{32}8b/6b,7/5,4/6,3/5,{8}4/2,,,
{32}1b/5b,2/6,3h[16:3]/7h[16:3],,,,,,{4},4/8,{32}3b/7b,2/6,1h[16:3]/5h[16:3],,,,,,
{16},,,,8,1,7,2,8,,1/7,,{32}2b/6b,3/5,{16}4h[16:3],,,
{16},,,,1,8,2,7,1,,2/8,,{32}3b/7b,4/6,{16}5h[16:7],,,
{16},,,,,,,,4/8,,,,{32}4b/8b,3/7,2/6,1/5,4h[8:3]/8,,,,
{4},8,{8}4,8,{12}4,8,4,8,4,8,{16}4,8,4,8,4,8,4,8,4,8,4,8,{20}4,8,4,8,4,{24}8-4[24:4],4-8[24:3],8,4,8,4,{32}8b,B8/B4,Cf,,
