&title=オニユリ
&artist=ぺのれり
&first=0
&des=十早月
&lv_5=14
&inote_5=(153)
{1},
{32}1h[4:1],,,,8,7,6,5,4,3,2b,,,,,,{16}3h[8:1]/8h[8:1],,,3/8,,,6,,
6>3[8:1],5,,4,,2,,2>5[8:1],1,,4,,6,6,,7,
1,,2>5[8:1]/8,,,2/8,,,1h[16:3],,,4h[16:3],{32}D1,A8,D8,A7,D7,A6,,,
{16}3,4,3,4,3,4,3,4,3,2,3,2,3,2,3,2,
3,4,2-5[8:1],,,2/7-3[8:1],,,7,,,1h[8:1],,{16}4,1,5,
2,6,3,7,4,8,5,1h[4:3],,,B2,,,E7,,,
B3,,,B5,,3/7,,,1/6h[16:3],,{32}D2,A2,D3,A3,D4,A4,D5,,6,,,,
{16}8,7,1,6,2,5,3,4,1bV35[8:1],,,7,,,8,,
1,2,8,,1bv6[8:1],,,7,,,8,,1,2,8,,
3-8[8:1]/8-4[8:1],,,,3/8,,,,1bv7[8:1]/5,,,7,,,{12}8h[384:1],5,6h[384:1],3,4h[384:1],1,7h[384:1],5,6h[384:1],1-5[8:1],5h[384:1],3,1h[384:1],{24},2>5[6:1],,,,,,2/5,6,7,8,,,
{16}8h[16:3],,,6q2[8:1],,,5/6,,
,3,,,1/4,,,8v3[8:1],,,2/8,,,1,,,
8/4<3[4:1],,,,2/4q6[4:1],,,,4,,,,,7,8,6,1,5,2,4,3,5>2[12:1],4,6,5b,,,8bw4[12:1],,,8bpp6b[4:5],,
{1},{4},,{16}4h[8:1],,6qq8[2:1],3h[16:5],,,,,,,,,,,,{32}1xqq2[8:3],2x,3x,,,,1,,4h[16:3],,,,,,,,,,
{24},,,3x,4,5,6,7,8pp7[2:1],1,2,3,{16},8,5hx[16:10],,{4},
,{16}6h[16:5],,1>4[8:1],,,1,{24}5,6,7,8,1,2,3,4h[3:1],,
,,,{24}3,2,1,8,7,6,5,4,3,{16}8x-4[8:1],,,1,8,,3,,2xv5[8:1],,,1,2,,7,,6x<1[8:1],,,5,6,,3h[8:1],,
{24}2x,1,8,7,6,5,4/8x,1,2,3,4,5,
{16}7b/6b,,,,5/6,,,,4/5,,,3,4,,2x>5[8:1]/4xp6[8:1],,,,,,,,1/7,,
1/7,,,2,8,,3x>8[8:1]/1xq6[8:1],,,,,,,,5/7,,5/7,,,4,6,,3x<6[8:1]/5x-1[8:1],,,,,,,,3x/7x,,
3xv8[8:1]/7x-4[8:1],,,,3/7,,,,
{16}1,,6h[8:1],,5,6,5x,,1/6h[8:1],,5,6,5x,,1/6h[8:1],,
5h[8:1],,8,1,8x,,5h[8:1]/6,,7,,8,1,2,3,6h[8:1],,
5,,8,1,2,3,5h[8:1],,4,,7,8,1,2,4h[8:1],,
5x,,6>3[8:1],4,,,2V41-5[8:3]/6,,,,,,6<1[8:1],,,,6,,,{24}4,3,2,1,8,7,6,5,4,3,E1,E2,E3,E4,E5,E6,E7,E8,{16},
{24}2h[12:1],,1,2,,8,1,,7,8,,6,1,,5,2,,4,3,,5,4h[4:1],
7,6,5,,,8,7,6,3x,2,1,4x,3,2,5x,4,3,6x,5,4,7x,6,5,8x,7,6,
{16}3,3h[8:1],,2,2h[8:1],,1,1h[8:1],,8,8h[8:1],,
7x,6x,5x,,3/4,,2>5[8:1],1,8,7,,6>3[8:1],,7,,2/6,,,
1,,1/8,,2-6[8:1],,3,8<5[8:1],2,,8>3[8:1],,,8,,,6,,
7/4,,4/7-3[8:1],,6,5-3>2[8:1],7,,5-7>8[8:1],,,5,,,3,,1b,,,,
6,5,7h[16:5],5,,8,,1,,2/4,,3,5x<8[16:3],,,8x>3[16:3],,,2x,,,4x,,,5x,,
6,5,7,,,8,1,,3/2>5[8:1],,,,2,1,8,7,6,,{1}2qq5[8:5]/6pp3[8:5],
{16},,
4x,4,4,4,4x,4,4,4,4x,4,4,4,4x,4,4,4,4x,4,4,4,4x,4,4b,6,5,7b,3,4,2b,,3/7,,
5x,5,5,5,5x,5,5,5,5x,5,5,5,5x,5,5,5,5x,5,5,5,5x,5,5b,3,4,1b,6,5,8b,,6/2,,
7,7,3,3,6,6,2,2,5,5,1,1,4,4,8h[8:1],,2,2h[8:1],,4,4h[8:1],,6,6h[8:1],,7,8,1,2,,3/4h[8:1],,1,1,8h[8:1],,3,,6/5h[8:1],,8,8,1h[8:1],,4<8[8:1],,,,8,1,2,3,4,,{4}4xw8[8:1]/8x,4/Cf,
{16},,
1/8-6[12:1],,2,2,8-5[8:1],,3,,8-4[8:1],1,1,,8-6[12:1],,3,,8-4[8:1],,2,2,8,,1b,2,
3,8b,7,6,1b,2,3,,
6V82[8:1],,2,2,6-4[12:1],,3,,6V82[8:1],2,2,,6-4[12:1],,3,,6V82[8:1],,2,2,6,,3b,4,
5,6b,5,4,2b,3,4,,3/7,,
5p8[4:1],,,,8<5[4:1],,,,5>2[4:1],,,,2<7[16:3],,,7<4[16:3],,,4,,,,{24}1x,8x,7x,6x,5x,4x,3x,2x,1x,
{16}5x,,6,5,,7,8,,8/1V35-7[4:1],,2,,3h[8:1]/1,,,,2-6[8:1],,,6/2,,,8h[2:1],,,,{48}A7,E7,B6,B5,B4,B3,E3,A2,,,,,,,,,,,{16}5bq8[8:4]*p2[8:4]/1x,,,,,,,,
{2},
{16}1V35[8:1]/6,,,7,,,8,,1,2,8,,1v6[12:1]/6,,,7,,,8,,1,2,8,,1/8w4[8:1],,,,8,,,,
2V46[8:1],,,6,,,7,,8,,E6/B5/B6,,2-5<6[8:1],,,6,,,7,,8,,B5/E5/B4,,2h[8:1],,1,,4b/7b,,,,
1v6[8:1]/6,,,7,,8,8h[8:1],,5,5h[16:3],,,4V68[8:1],,3,3,,2,2,,,
1-5[8:1],,,1/7-4[8:1],,,,3>5[4:1]/7x,,,,3h[4:1],,,,,,
3,4,2,5,1,6,8,1/7,2/6,3/5,1x-5[12:1],,,1/7-4[12:1],,,3h[4:1]/7,,,,
{48}E3,E2,E1,E8,E7,E6,{16}E5,,,,
{16}1b,1,1,1,1,1,1,1,1,1,1,1,1,1,1,1,1,1,1,1,1,1,1,1,{24}2,3,4,5,6,7,2,3,4,5,6,7,
{16}1/8,,2,1,3h[8:1],,4,,2,,6h[8:1],,8,7,1,7,
8h[8:1],,6,5,7,5,6h[8:1],,1,,4,2,6b,,5,7,2b,,
{24}8,,8,1,,7,8,,6,1,,5,2,,4,3,,6,2,,8,4,,1,8,7,6,
2,4,2,4,2,4,2,4,2,4,2,4,{4}1b,
{16}2b/7b-3[8:1],,,,3/7,,4bpp6[8:1]*qq2[8:1],,,,4x,,,,
1xb,8,1,8,1,8,1,8,1,8,1,8,1,8,1,8,1,8,
8b,8,8b,8,8b,8,8b,8,8b-4b[8:1],8b,8b,8b,8b,,,,2b/6b,,,8b/4b,,,,,
E
