&title=IDENCY
&artist=ESPITZ Gt.NeLiME
&first=0.01
&des=abency
&des_5=abency
&lv_5=14+
&inote_5=(156){4},,,,{16}4x,
5,4,5,4,5,4,5,4,5,4,5,4,5,4,5,
4,5,4,5,4,5,4,5,4,5,4,5,4,5,4,5,
3x,6,3,6,3,6,3,6,3,6,3,6,3,6,3,6,
2x,7,2,7,2,7,2,7,1x,8,1,8,1,8,1,8,
3x,4,3,4x,2,5,2x,5,1,6x,1,6,8x,7,8x,7,
5x,6,5,6x,4,7,4x,7,3,8x,3,8,2x,1,2x,1,
3,4,2,6x,5,7,3x,4,1,6x,5,8,3x,7,3x,7,
6xh[8:1]/5h[8:1],{8},{16}3xh[8:1]/4h[8:1],{8},1/8x,{32}2x,3,4,5,6,7,8,1,6/2,5,4,3,2,1,8,7,
{8}6b/2b,4,{16}3/5,3,{8}7,{16}6/4,4,{8}8,{16}3/5,3,{8}7,
{16}6/4,4,{8}8,{16}3/5,3,{8}7,{16}2,4,1,8,5,7,1,8,
{8}2h[8:1],5,{16}6/4,6,{8}2,{16}3/5,5,{8}1,{16}6/4,6,{8}2,
{16}6,5,7,3,4,2,{8}8h[8:1],{24}3,7,3,7,3,7,{16}2x,6x,2x,6x,
{8}1b,5,{16}6/4,6,{8}2,{16}3/5,5,{8}1,{16}6/4,6,{8}2,
{16}3/5,5,{8}1,{16}6/4,6,{8}2,{16}7,1,5,3,6,4,8,2,
{8}7h[8:1],4,{16}3/5,3,{8}7,{16}6/4,4,{8}8,{16}3/5,3,{8}7,
{16}2,1,3,7,8,6,{8}4h[8:1],{24}8,7,6,5,4,3,7,6,5,4,3,2,
{8}8b/1b,7/2,{16}5,4,5,4,6,5,7,4,5,4,6,3,
4,3,5,2,6,5,7,4,8,1,7,2,6,3,7,2,
5,4,6,3,4,3,5,2,6,5,7,4,7,8,6,1,
5,5,3,3,7,7,1,1,{24}7,6,5,4,3,2,7,6,5,4,3,2,
{8}1b/8b,2/7,{16}4,5,4,5,3,4,2,5,4,5,3,6,
8,7,1,6,1,8,2,7,3,6,{24}3,2,1,8,7,6,5x/4x,{12},{24}4,
5,4,5,4,5,3,6,3,6,3,6,2,7,2,7,2,7,1,8,1,8,1,8,
{16}3xh[8:1]/4xh[8:1],{8},{16}7xh[8:1]/5xh[8:1],{8},1x/2x,{24}8,7,6,4,3,2,8,7,6,4,3,2,
{1}1b/8b<1[4:5],
{2},{24}E6,B5,B4,E4,{12},{8}C,{16}1x/8x,1x/8x,
{4}2x-6[8:3]/7x-3[8:3],{2},{8}5/4,{16}3,4,
2,2,6,6,4,4,8,8,{24}4,3,2,8,7,6,4,3,2,8,7,6,
{1}5b/4b>5[4:5],
{2},{24}E2,B1,B8,E8,{12},{8}C,{16}4x/5x,4x/5x,
{4}6x-2[8:3]/3x-7[8:3],{2},{8}1/8,{16}5,4,
7,7,3,3,5,5,1,1,{24}5,6,7,1,2,3,5,6,7,1,2,3,
{8}8b/4,5/6h[8:1],{32}8x,1x,2x,3x,{16}4x,8,{8},5/6h[16:1],{32}8x,1x,2x,3x,{16}4x,8,
{8},5/6h[16:1],{32}8x,1x,2x,3x,{8}4x,{4}7-4[8:1]/6-1[8:1],7/6,
{8}1x/5,4/3h[16:1],{32}1x,8x,7x,6x,{16}5x,1,{8},4/3h[16:1],{32}1x,8x,7x,6x,{16}5x,1,
{8},4/3h[16:1],{32}1x,8x,7x,6x,{8}5x,{24}2,4,2,4,2,4,1,5,1,5,1,5,
{8}8h[16:3],4,{32}1x/5x,2x/6x,3x/7x,4x/8x,{12},{24}1xh[48:11],{8},5,{32}8x/4x,7x/3x,6x/2x,5x/1x,{16},8xh[4:1],
{8},4,{32}1x/5x,2x/6x,3x/7x,4x/8x,{8},{4}1xV75[8:1]/5xV31[8:1],1/5,
{8}8xh[8:1],{16}4,1,{32}5x/2x,6x/3x,7x/4x,8x/5x,{16},1xh[16:3],{8},{16}5,8,{32}4x/7x,3x/6x,2x/5x,1x/4x,{8},{16}8xh[8:1]/4xh[8:1],
{8},{16}2h[8:1]/6h[8:1],{8},8/4,{24}3,2,1,8,7,6,3,2,1,8,7,6,
{8}5b/4b>5[2:1],{4},,,{16}8,8,
1,2,3,4,1,8,7,6,4,3,2,1,4,5,6,7,
4/8h[16:3],{8},{16}2,{8}2h[8:1],{16}4,4h[8:1],,6,{8}6h[8:1],8,8,
{16}3,4,2,5,8,7,1,6,{24}3x,4,3,4,{48},{16}2,{24}6x,5,6,5,{48},{16}7,
{24}2x,3,4,8x,7,6,1x,2,3,7x,6,5,2x,3,4,1x,2,3,7x,6,5,8x,7,6,
1x,2,3,7x,6,5,2x,3,4,8x,7,6,{16}1x,1,5x,5,3x,3,{8}7xh[8:1],
{24}2x,1,2,1,{48},{16}3,{24}7x,8,7,8,{48},{16}6,{24}3x,4,3,5,{48},{16}2,{24}6x,5,6,4,{48},{16}7,
1h[8:1]/8h[8:1],{8},{16}4h[8:1]/2h[8:1],{8},5/4,{24}6,7,8,1,2,3,6-2[8:1],7,8,1,2,3,
{32}4b/6b,Cf,{16},,,3/5x,3,7,7,{8}2h[8:1],{16}5,4/5,,3,{8}7/3,
6/4h[8:1],8,{16}3/5,3,7,7,{8}2h[8:1],{16}5,4/5,,3,{8}7/3,
{16}8h[8:1]/2h[8:1],{8},{16}4h[8:1]/5h[8:1],{8},8/7,{16}5h[8:1]/3h[8:1],{8},{16}8h[8:1]/1h[8:1],{8},6/5,
{16}4h[8:1]/3h[8:1],{8},{16}5h[8:1]/2h[8:1],{8},7/8,{16}1,2,3,4/8,7,6,{8}5/2,
{16}3b,4,2,6,5,7,2,2,6,5,8,3,4,1,8,8,
6xh[8:1]/5bh[8:1],{8},{16}7h[8:1]/4h[8:1],{8},8/1,{16}1h[8:1]/2h[8:1],{8},{16}8h[8:1]/3h[8:1],{8},5/4,
{16}6b,6,5,7,3,3,4,2,7b,7,5,5,3,3,1,1,
2xh[8:1]/4h[8:1],{8},{16}7h[8:1]/5h[8:1],{8},8/1,{24}3,2,1,8,7,6,3-7[8:1],2,1,8,7,6,
{16}3b/5b<4[2:1]*<4[2:1],Cf,{4},,,{16}1,1,
6,6,8,7,3,5,1,7,3,3,1,2,6,4,8,2,
6bx,5,4,7x,6,5,{8}8xh[16:1],{16}3bx,4,5,2bx,3,4,{8}1xh[16:1],
{16}7bh[8:1]/8h[8:1],{8},{16}6h[8:1]/1bh[8:1],{8},4b/3,{24}2x,1,2,8,{48},{16}3,{24}6x,5,6,4,{48},{16}7,
{24}5x,6,5,6,5,6,4x,7,4,7,4,7,3x,8,3,8,3,8,2x,1,2,1,2,1,
3x,4,5,8x,7,6,2x,3,4,1x,2,3,7x,6,5,8x,7,6,{16}4x,4,5x,5,
{24}3,2,1,8,7,6,5/4,3,2,1,8,7,6/3,2,1,8,7,6,5/4,3,2,1,8,7,
{16}6h[8:1]/4h[8:1],{8},{16}3h[8:1]/1h[8:1],{8},8/6,{24}1,5,1,5,1,5,2-6[8:1],6,2,6,2,6,
2b>2b[4:5],Cf,{12},,,,,,,,,,,,,,,,,{8}5h[8:3],
{4},{8}3bs7[4:1],
,,,8,8h[8:3],{4},{8}5,
,6/4,3,2,7/1,7/1-5[8:1],,{32}6bz2[4:1],Cf,{16},,,,,,,{8}1,
1h[8:3],{4},{8}4,
,6/4,6/4,7,8/2,2/8-4[8:1],,{32}3bs7[4:1],Cf,{16},,,,,,,{8}8,
{2}8h[4:1],
{16}7/5,{8},{16}1/3,{8},6/5,{16}2/4,{8},{16}8/6,{8},1b/Cf,
{4},{24}4,5,4,5,4,5,4,5,4,5,4,5,4,5,4,5,4,5,
4,5,4,5,4,5,4,5,{12}4,5x,{48}4x,{12},{48}5x,,,,,,4x,{12},5x,4x,
{8},5xp4[8:11],{4},{2}4x,
E
