&title=さよならごっこ
&artist=amazarashi
&first=0.02
&des=💧
&lv_5=13
&inote_5=(73.5)
{4},,,,
{24}
6h[24:3]/2,,,,,,
6h[24:3],,,1p1b[24:9],,,
6h[24:3],,,,,,
6h[24:3],,,,,,
6h[24:3],,,,,,
6h[24:3],,,4,,,
3/7-3[24:3],,,28,,,
3x/7x,,,1p1[24:9],,,
6h[24:3],,,,,,
6h[24:3],,,,,,
6h[24:3],,,,,,
6h[24:3],,,,,,
6h[24:3]/3,,,2,,,
6h[24:3],,,1p1[24:9]*p1[24:9],,,
6h[24:3],,,,,,
6h[24:3],,,,,,
7w3[24:3],,,,,,
7x,,,,,,
5s1[24:9]/1h[24:3],,,,,,
3h[24:3],,,,,,
5h[24:3],,,,,,
7h[24:3],,,,,,
1^4[24:3]*q5[24:3]/8,,,,,,
1x,,,,,,
5^8[24:3],,,5q1[24:3],,,
,,,,,,
5w1[24:3],,,,,,
,,,,,,
2h[24:3],,,4,,4,
5h[24:3],,7,7,,,
8q4[24:3]/4^1[24:3],,,4q8[24:3],,,
8x^5[24:3],,,,,,
,,,,,,
1^4[24:3],,,4p8[24:3],,,
8^5[24:3]*p4[24:3],,,,,,
,,,,,,
7h[24:3],,,5,,5,
4h[24:3],,2,2,,,
3pp3[24:6]/6qq6[24:6],,,{96}B5,E5,B4,,{24},,
3x>5[24:6]/6x<4[24:6],,,,,,
,,,,,,
,,5,3,,7,
1pp1[24:6],,,5pp5[24:6],,,
1x<1[24:6],,,,,,
,,,,,,
,,8,2,,6,
4w8[24:3],,,,,,
4pp8[24:9]*qq8[24:9],,,,,,
,,,,,,
,,,,,,
1>8b[24:15]/Ch[24:12],,,,,,
,,,,,,
,,,,,,
,,,,,,
1,2,3,4h[24:3],5,6,
7,,,8,7,6,
5h[24:3],4,3,2,,,
1,2,3,4h[24:3],,,
8,7,6,5h[24:3],4,3,
2,,,1,2,3,
4h[24:3],5,6,7,,,
8,7,6,5h[24:3],,,
1-5[24:2],,5,3,7,5,
1x,,2,,,2,
8-4[24:2],,4,6,2,4,
8,,,5,,,
34,,,56,,,
23,,,67,,,
12,,,78,,,
D1/A1/A8/E1f/B1/B8,,,,,,
1b^4[12:1]/8bq4[12:1],,,5^8[12:1]/4q8[12:1],,,
1x/8x,,,,,,
1-6[12:1],,8,2-5[12:1],,,
13,,,,,,
7>3[24:3],,5,3p6[24:3],,,
7x/4x,,,,,,
1pp1[12:2],,,73,,,
51,,,,,,
4^7b[12:1],,7,8^3b[12:1],,3,
4x,,,8V63[24:3],,,
8bh[24:3],,,,,,
,,4,5,,3,
6-3b[12:1],,4,5,,3,
6x,,1,1>6[12:2]*q6[12:2],,,
78,,,,,,
,,,,,1p5[24:3],
8^5[12:1],,5p1[24:3],4^1[12:1],,1x,
8x,,,,,,
8-4[12:1],,1-3[16:1],7-5[16:1],,2,
8,,,,,,
3<7[24:3],,1,7p2[24:3],,,
3x/8x,,,,,,
5v2[12:1]*^8[12:1],,2,8p4[12:1],,,
5,,,,,1,
1^6[12:1],,6,5^2[12:1],,2,
1xq5[24:3]*p5[24:3],,,5pp6[24:3]*qq4[24:3],,,
,,,,,,
,,5,3,,6,
4-1[12:1],,5,2,,7,
4x,,5,5,,1
,
2z6[12:2]/7s3[12:2],,,18,,,
27,,,,,,
A1,,,E1,,,
B8,,,C,,,
B4,,,E5,,,
A5,,,7^5-1pp1[24:15]/3^5-1qq1[24:15],,,
,,,,,,
,,,,,,
,,,,,,
,,,,,,
