&title=オラシオン
&artist=茅野爱衣
&first=-0.1
&des=[ ]
&des_5=[ ]
&lv_5=12+
&inote_5=(83){4},4xqq4pp4[1:1],{1},{4},{16}2>5[8:1],
1,,1/7,
,8,7,6,{8}5>1[8:1],6/4,7,6,{16}7<4[8:1],8,,8/2,
,1,2,3,{8}4<8[8:1],3/5,2,3,{16}4<7[8:1],3/5,2,1,
,1,2,3,{8}4>8[8:1],3/5,7,6,5<8[8:1],{16}4,5,
{8},3,1pp1[4:1],{16}8,1,{8},7,5,5,
5,{16}5,B2,{8}5,5,5/B1,5/3,3,3,
3,{16}3,B8,3,B6,{8}4,4,{16}3,5<8[8:1],{8}5,{16}3,3,
{8},{16}1>4[8:1],1,{8},{16}7,7,,7,{8}8-2b[8:1],{4}5,
{16},5,{8}6V47[4:1],2,3,{16}1,{8},{16}2,{8}8<4[8:3],{16}3,3h[16:1],
{8},{16}2,2h[16:1],{8},{16}1,1h[16:1],{8},{16}3,5,{8}1>5[8:3],{16}6,6h[16:1],
{8},{16}7,7h[16:1],{8},{16}8,8h[16:1],{8},{16}7,4,{8}6<1[8:1],{16}4,4,
{8},{16}3,3h[8:1],,8-5[8:1],{4},{16},3,{8}3h[8:1],{16}5,5h[8:1],
,2>5[8:1],,1,,,,8,{8}8-4b[8:1]*-5b[8:1],6/1,{4},{8}3>8b[8:1],
2/4,{16}5,5,,6,{8}6V84b[4:1],5/7,{16}3,3,,2,
{8}2-5b[8:1],3/8,{16}7,7,,6,{8}6V48b[4:1],7/3,{16}2,2,,1,
{8}1-5b[8:1],7-3[8:1],1,7,1,7,(166)8b-4[8:1],8b,
,2b-6[8:1],{4}2b,{8}5b-8[8:1],5b,,1,
2,3,{4}4w8[8:1],4b,6<1[4:1],
{8}5,4,{4}3>8[4:1],{8}4,5,{4}7-4[8:1],
7/1-5[8:1],1/6-1[8:1],6/4,{8}3,2,
1,6/8-4[8:1],,8/5<1[4:1],,1>5b[4:1],,5V71[4:1],
,1,,4,,2,1q5[8:1],1,
7-4[8:1],7,2>5[8:1],2,7,8<4[4:1],,4>8b[4:1],
,8V64[4:1],,4,,1,2,2,
3/5,6,4/7,2xpp4b[16:3],6xpp8[8:1],2x,{4}6x,
{8},3xh[8:3],{4}7x,{8},7,{24}1b,2,3,4,{12},{8}8-4[8:1],
8,2-5[8:1],2,7p3[8:1],7,1,1-5b[8:1]*-4b[8:1],
,1,,6,7,8,3-5[8:1],2,
8-4[8:1],7,{4}1,2b/5b,{8}7,6b/4b,
,5,4b/2b,1,6b/8b,5,1,2,
{4}5/3,{8}8,7,{4}6/4,{8}1,2,
3/5,4/6,8,7,6,3,2-4[8:1],1,
7-3[8:1],6,3,2,1,8,7/1,6,
5/2,3,{4}4b/6b,{8}7b/4b,{16}6,5,{4}7/4>7[4:1],
{8}7/4,6,{4}5<2[4:1],{8}5/2,3,{4}4-8[8:1],
4/7-5[8:1],{8}7/2-6[8:1],1,2/7,8,{4}4/7-4[8:1],
{8}2,1>5b[4:1],,5<1b[4:1],,1V35b[4:1],,5,
,8-4[8:1]*-6[8:1],,8,{4},2>5[8:1],
{8}2/6,7-4[8:1],8,7/3,2,1pp5[8:3],{4},{8}8,
7,6,6,7/4,3,8-4[8:1],8,
,2-5[8:1],{4}2,{8}6-2[8:1],6,,4-1[8:1],
{4}4,{8}8,2/6,5,4pp7[2:1]/3qq8[2:1],{1},{8}1/5q7[1:1],
5/1q3b[8:7],
