&title=真夏と少年の天ノ川戦争
&artist=Orangestar
&first=1.315
&des_5=Ragna
&lv_5=13+
&des=Ragna
&wholebpm=183
&demo_seek=127.8
&demo_len=24.2
&inote_5=(183){16}
3,,,3,,,3h[1:1],,,,4,,4,,,,
5,,,5,,,5h[1:1],,,,4,,4,,,,
2,,,2,,,2h[1:1],,,,4,,4,,,,
6,,,6,,,6h[1:1],,,,5,,5,,,,
4,,,4,,,4h[1:1],,,,5,,5,,,,
7,,,7,,,7h[1:1],,,,5,,5,,,,
2,,,2,,,2h[1:1],,,,4,,4,,,,
8,,,8,,,8h[4:1],,,,1,,{4}18,
2-4[4:1],4-6[4:1],5,7,
7V53[2:1],5,4,2,
2^4[4:1],4^6[4:1],5,7,
7<3[2:1],5,4,2,
2-4[4:1],4-8[4:1],5,7,
7V51[2:1],5,4,2,
2^4[4:1],4-8[4:1],8^6[4:1],6<3[32:15],
5h[4:3],,,4,
3h[4:1]/6b,4h[4:1],5h[4:1],6,
3h[4:1]/7,4h[4:1],5h[4:1],6,
3h[4:1]/8,4h[4:1],5h[4:1],6,
3h[4:1]/1,4h[4:1],5h[4:1],6,
7h[4:1]/3,6h[4:1],5h[4:1],4,
7h[4:1]/2,6h[4:1],5h[4:1],4,
7h[4:1]/1,6h[4:1],5h[4:1],4,
7h[4:1]/8,6h[4:1],5h[4:1],4,{16}
3,,3,4,,4,2h[4:1],,,,5,,4,,6h[2:1],,
,,5-8[8:1],,,,,,,,5,,5,,1,,
1,,6h[4:1],,,,2h[4:1],,,,5,,3,,7h[4:1],,
,,5,,6,,4qq4[4:1],,,,,,,,,,
6,,6,5,,5,7h[4:1],,,,5h[4:1],,,,4h[4:1],,
,,2,,5,,1h[4:1],,,,8,,8,,2,,
6,,5,,7,,3h[4:1],,,,4,,4,,1<3[2:1],,
,,6^3[4:1],,,,5pp5[4:1],,,,,,,,,,
3,,3,4,,4,2h[4:1],,,,5,,5,,3,4,
3,,,54,,,6h[4:1]/3,,,,5,,5,,7,,
4,,4,5,,5,3h[4:1],,,,4,,2,,6h[4:1],,
,,5,,7,,4qq4[4:1],,,,,,,,,,
6,,6,5,,5,7h[4:1],,,,4,,4,,5,,
3,,,24,,,{8}1h[4:1]/5,,8,2qq5[8:7],6,
4h[1:1],,,,,,,,
,,6-4[8:1],,2-6[8:1]/6,,2/8-4[8:1],,
8b/5b,,3>7[8:1],,7>4[4:1],,5,,
6,6,5-1[8:1],,58,,6V47[4:1],6,
1,2,3>6[4:1],4,8,,5,5-8[8:1],
,4,4<3[16:5],,1,,4,5,
6v1[8:1],,6/4<8[8:1],,8<3[4:1],,4,,
8,8,2-6[8:1],,24,,7V51[4:1],7,
5,4,3,2,8,1pp1[4:1],6,6h[4:1],
,,5>6[16:5],,1,,5,4,
3-5[8:1],,7>3[8:1]/3,,3>6[4:1],,5,,
4,4,5-1[8:1],,52,,3V17[4:1],3,
7,6,5h[4:1],,1v7[8:1],,17,8w4[8:1],
,8,,1w5[8:1],,1,,7-3[8:1],
3-7[8:1],,1,1h[4:1],,8>4[4:1],,4<8[4:1],
,8>4[4:1],,4<8[4:1],,8z4[4:1],,3,{4}
3h[2:1],,4-8[8:1],,
1b-5[8:1],7b-3[8:1]/1,4b-1[8:1]/7,5b-8[8:1]/4,
2b-6[8:1]/5,2/7bw3[2:3],,,
,,,,
,,,,
,,,,
1h[4:1]/5,3h[4:1],5h[4:1],7,
1h[4:1]/6,3h[4:1],5h[4:1],7,
1h[4:1]/7,3h[4:1],5h[4:1],7,
1h[4:1]/8,3h[4:1],5h[4:1],7,
8b>7[2:7]/1b,,,,
,,,,
,,1,1,
1,1,1,1-5[8:1],{1}
1b/8<1[4:27],
6,
4,
2,
8,
6,
4,
6p3[2:1],{4}
2h[1:2],4,4,6,5,7,3,5,
6h[1:2],4,4,5,4,2,7,5,
3h[1:1],4,6,5,
6h[1:1],5,7,5,
3h[2:1],4,5h[2:1],6,
3h[4:1],4h[4:1],5h[4:1],7v8[8:1],
,1b,{16}
3,,3,5h[16:3],,,3,,
6,,6,4h[16:3],,,6,,
3,,3,4h[16:3],,,3,,
6,,6,5h[16:3],,,6,,
2,,2,5h[16:3],,,3,,
7,,7,4h[16:3],,,6,,
2,,2,4h[16:3],,,3,,
7,,7,5h[16:3],,,6,,
3,,3,5h[16:3],,,2,,
6,,6,4h[16:3],,,7,,
3,,3,4h[16:3],,,2,,
7^5[8:1],,,,5,,4,,
3,,3,5h[16:3],,,1,,
6,,6,4h[16:3],,,7,,
3,,3,4h[16:3],,,1,,
6,,5,,4,,3,,{4}
6V83[8:3],,4V26[8:3],,
5qq6[4:3],,,,
,,,,
,,,,
8bz4[16:5]/4b,,2-6[8:1],2b/5b,
4-1[8:1]/8,8-5[8:1]/4,4>6[4:1]/8,4b/3h[4:1],
,1-4[8:1]/4,1/5<3[4:1],5b/6h[4:1],
,8-5[8:1]/5,8/4-1[8:1],4/2V46[4:1],
6V82[4:1],2V48[4:1],4,{8}7,6,{4}
5/1-4[8:1],5-8[8:1]/1,5/1>7[4:1],1b/2h[4:1],
,4-1[8:1]/1,4/8<2[4:1],8b/7h[4:1],
,5-8[8:1]/8,5/1-4[8:1],3V17[4:1]/1,
7V53[4:1],3V15[4:1],1,{8}6,7,{4}
4-2[8:1]/8,8-4[8:1]/4,3>4[4:1]/8,3b/1h[4:1],
,1-5[8:1]/5,6<5[4:1]/1,6b/8h[4:1],
,8-4[8:1]/4,3>4[4:1]/8,3b/1h[4:1],
,1w5[8:1]/5,1,73,
1>6[16:3],16,8<3[16:3],84,
8>5[16:3],84,1<4[16:3],{8}14,3,
2-5[8:1],,8-3[8:1],,1-6[8:1],,7-4[8:1],,
2^7[8:1],,6qq3[16:7],6h[8:3],,,,7,
8b<1[4:11],,,,,,,,
,,,,,,,,
,,,,,,,,
,,8,8,8z4[4:1],,3,3p5[4:1],
,,4b>5[2:5],,,,,,
,,,,,,,,
,,,,,,,,
E
