&title=プシ
&artist=r-906
&first=-0.01
&des=y/KKMO
&lv_5=14
&des_5=y/KKMO
&inote_5=
(174){4},{8},,,,,,,5-8-2-6>3-7[4:53]/4<7-3-1-5-3[4:53],
{1},,,,,,,,,,,,,{4},,,{1}3h[2:3]/4h[8:7],
{4}2x,2x>5[8:1],{2}2x,
{8},Cf,5xq2[16:3],5x,,4,{4}3q7[8:1],
{8}3,1,8,8,{2}8v6v5[2:1],
{8},,A4,6,3,2,{4}1-4[8:1],
{8}5h[16:1],6,7,8,{4}7>2[8:1],{16}7,D1,{8}3,
4,5b/6b,{16}7,5,{8}6,3v5[8:1],5,{4}3,
{8}8h[16:1],7,1,2,{2}3-6-1[8:3],
{8},,5h[16:1],6,7,5,{4}7/4>2[16:1],
{8}4/5h[16:1],6,7,3,{4}4>1[8:1],{16}8,7,{8}6,
6,1v4-2[8:3],,5,,5,,6-3v5[8:3],
,2,,2,,2-8v3[8:3],,6,
,6,,6-8q5[8:3],,2,,2,
,2q6>4[8:3],,7,,7,{16}E8,E7,{8}E6,
3,4,4,5,5,6,6,7,
7,8,8,1,1,2,2,3,
3,{16}2,4,2,4,3,5,3,5,4,6,4,6,5,7,
5,{48}7,6x,,{24}5x,4x,3x,2bx,1x,8x,7x,6x,5x,4bx,3x,2x,1x,8x,7x,6bx,5x,4x,3x,2x,1x,
8x,7x,6x,5x/Ch[4:7],{1},{4},,{16},,,{48},{8}B1/B8/E1f,
,2-5[8:1],{16},1,{8}2-8[8:1],6,6,{4}5<8[8:1],
{16}5,3,{8}3,2,7,{4}8>3[8:1],{16}A8,D2,{8}A3,
4x>1[8:1],5,{16}4,6,{8}6,1x,7-5[8:1],{4}5-8[8:1],
{16}1,2,{8}3,3,7,{4}4v7[8:1],3bh[8:1],
1bh[8:1]/2bh[8:1],{8}7x/8x,6/5x-7[8:1],3,3,{4}1-4[8:1],
{16}1,6,{8}6,4x,5,1/7h[8:1],1,{16}8x,8,{8}8,
7,2-5[8:1]*-7[8:1],,2,,4,{4}6,
{8}2/5h[16:1],3,4,6/3,{4}7-4-6[4:1],2h[8:1],
1h[8:1],{8}3/5,6/4,{16}7,8,{8}7,{4}1>4[8:1],
{8}1,6,7,E8,{4}C,{16}4,5,{8}4,
7/2,6/3h[8:1],{16}5,4,{8}6,7,2,{4}6h[4:1]/3h[8:1],
{16},4,{8}6,8,7,{4}1-5-3[4:1],8h[8:1],
8h[8:1],{16}1-5[8:1],2,{8}8,1x/7x,6,{4}7<4[16:3],
{16}4,3,{8}2,2,1/8,{4}8/1-5[8:1],7-5-1[4:1],
{8}7b,C,3x,3x,5/7,6/4,3,{16}3,4,
{8}2,1,{16}7,7,,4,3x,2,7x,6,2x,1,7x,6,
{8}5,3h[8:1],8,2h[8:1],7,1,6/8,5,
4/3,6b,{16}2,4,3,5,{8}4,5/6,7-5[8:1],8,
1/7bx,2b,{16}3,4,3,4,{8}3,5,6/4-1[8:1],7,
5/4,8,{16}1,7,2,6,{8}3,4/7-3[8:1],6,7/3,
2,1,{16}7,8,6,1,{8}5h[8:1],{16}3,4,2,5,{8}1,
7,{16}4,5,{8}4,{16}6,5,{8}6,3,3,6,
7,1b,{16}8,2,7,3,{8}6V84[4:1],4,6,3,
1,1,{16}7,5,{8}6,4,3/5,{16}2,6,{8}2,
{16}7,1,{8}7,{16}1,8,{8}1,{16}7,5,,4,{8}6,5,
1,{16}6,5,{8}6,{16}3,4,{8}3,7,8/3>8[8:1],6,
3,5,5,{16}3,4,,2/5,,,{8}6,{16}1,7,
{8}8h[8:1],{16}7,1,6,2,5,3,{8}4,3h[8:1],{16}6,5,{8}6,
7,{16}2,1,2,1,{8}3,5,6,{16}8,7,{8}8,
{16}6,5,{8}6,4,4,{16}3,4,2,6,5,7,3,4,
2,6,{8}Cf,,,E7/B6/E6/A6,,,E2/A2/B2,
,,{4}A5/E5,{8},E1,,,C,
,,E5,,,{4}D5,
{8}3,3,{16}6,5,7,3,4,2,6,5,7,3,4,2,
7,3h[16:1],{8}C,,,A2/E3/B2/E2,,,B6/E6/A6,
,,{4}B3/A3,{8},E8,,,C,
,,Ch[8:9],,,,,,,,,{4}8-4[8:1],
{8}8,3-7[8:1],
{48},,,,,,3b,Cf,,,,,,,,,,,{8}6-1[8:1],6,2>5[8:1],2,7,
{4}7V53[4:1],{8}2,1,{4}8-4[8:1],{8}8,6-3[8:1]*-8[8:1],
,6,,2-5[8:1],5,2,6-2[8:1],4,
{4}5-7[8:1]*-8[8:1],5-2[8:1]*-3[8:1],5,{8}B7/E7/A7,E8/B7/E7,
,4-2[8:1],3,5-7[8:1],6,5/4,3-6[8:1],6-3b[8:1],
{4}3,{8}8-5[8:1],2,{4}8>5[4:1],8,
{8}6,7,5,4,B6/B7,3xh[8:1],B5/B4,2xh[8:1],
B3/B2,1xh[8:1],,8x-4[8:1],8x,4xw8[8:1],,,,B7/B6/B5/B4/E5/B3/B2/E7/E3/Cf,
,1-5[8:1],1,8-4[8:1],8,1,
2,3-1[8:1],3,4-8[8:1],{4}4,{8}2,3V17[8:1],
,3/E6,,5<8[8:1],6,5/1>4[8:1],2,1,
{4}7-3[8:1],7w3[8:1],7,{8}B2/E3/B3,B2/E3/B3,
,5/6v1[8:1],7,6/3-5[8:1],4,3/8,6,2,
{4}1>4[8:1],7>2[8:1],7,{8}5,5-7v2-4-8[8:15],
,8b,,,,,,,,,,,,,,B7,
,3,{16}5,4,{8}6,7,6/5,{4}5/4,
{16}4,5,{8}3,2,3/4,{4}4/5
||这是一个标记~
,{16}1>5[8:1],5,{8}2,
1,6b,{16}8,5,{8}7<4[8:1],4-8[8:1],3,{4}3,
{16}2,1,{8}2>5[8:1],8,7,{4}6-3[8:1],6/2-7[8:1],
6/2,{16}5v8[8:1],4,{8}6,5,3,{4}2h[4:1],
{16}1,3,{8}8-4[8:1],4-8b[8:1],3,{4}3,{16}2,1,{8}2,
8-5[8:1],4b,{16}8x,4x,,,{8}5/3,2,4/6,5,
3,{16}6,5,,5,{8}6<2[4:1],4,6,5,4,
3,{16}3,4,,4,{8}3,5-1[8:1],4,6/5,7,
8,{16}2,1,,1,{8}2,7-4[8:1],6,2/7,3,
3,{16}6,5,{8}6,7,{16}4,6,,6,{8}4,5,
3>8[8:1],{16}2,4,{8}3,{16}6,6,,5/7,{8}5/7,4,4,
6<1[8:1],{16}7,5,{8}6,{16}3,3,,4/2,{8}4/2,3,4,
3,7h[8:3]/5h[8:1],,4h[8:1],,3,2-5[8:1],7-4[8:1],
2,7,{16}3,2,1,8,{8}7/5,5,6,7,
8,1x,{16}1,8,7,6,{8}5/3,2,5/4,5,
1/5,7/3-1[16:1],{16}2,4,{8}3,6,7-5[8:1],{16}6,8,{8}7,
3,5,{16}3,4,3,4,{8}3,2/5-1[8:1],6,5/2,
4,8,{16}4,3,2,1,{8}8/6,5,4/6,{16}6,5,
{8}7,8/4,7,{16}2,1,{8}2>5[8:1],5V71[8:1],2,1,
5x,6-8[8:1],{16}7,5,{8}6,4,4,{16}5,3,{8}4,
5/2,2h[8:1],{16}5x,6,3x,2,6x,7,3x,4,5x/1,8,7x,6/4,
3x,2,{8}Cf,1x>4[8:1],{16}1x,8,{8}1x,{24}5,6,7,{8}8,3,
{4}3h[4:1],{8}8x<5[8:1],{16}8x,1,{8}8x,{24}4,3,2,{8}1,6,
{4}6h[4:1],{8}1x>4[8:1],{16}1x,8,{8}1x,{24}5,6,7,{8}8,3,
3,6/4,{16}6,5,{8}6,{16}3,4,{8}3,{16}7,6,{8}7,
{16}2,3,{8}2,5x-8[8:1],{16}5,4,{8}5,{24}1,2,3,{8}4,5x,
{4}5x,{8}4x-1[8:1],{16}4,5,{8}4,{24}8,7,6,{8}5,4x,
{4}4x,{8}5x-8[8:1]
||这是一个标记~
,{16}5,4,{8}5,{24}1,2,3,{8}4,5x,
5x
||这是一个标记~
,7,5h[16:1],6h[16:1],4h[16:1],5h[16:1],3h[16:1],4h[16:1],
2h[16:1],6b/4bh[16:1],7,8/1h[16:1],2h[16:1],3/4h[16:1],5h[16:1],3/4h[16:1],
2h[16:1],3/4h[16:1],6h[16:1],2/5h[16:1],4h[16:1],7/5h[16:1],6h[16:1],2/4h[16:1],
3h[16:1],7/8h[16:1],6h[16:1],8/7h[16:1],1h[16:1],4/5h[16:1],7h[16:1],5/4h[16:1],
2h[16:1],4/5h[16:1],7h[16:1],3/4h[16:1],1/2h[16:1],8/7h[16:1],6/5h[16:1],3/4h[16:1],
{1}1b/5,
,{48}1x,
2x,3x,4x,5x,6x,7x,8x,{6}1x,{24},{8}7bx-3b[8:1],3bx>2<1b[4:1],7bx,{4}1bx<8<7b[4:1],
7bx<6>5b[4:1],5bx>4>3b[4:1],3bx>2<1b[4:1],{8}8x,8xw4[8:1],
||这是一个标记~
,,,E6,,E4,{4}E3,
5h[16:1],6h[16:1],3h[16:1],{8}E7,E8,
,2h[16:1],,E1,E8,E7,{4}E6,
4h[16:1],6h[16:1],1h[16:1],{8}E7,E3,
,E6,,B3,,5h[16:1],{4}5h[16:1],
B8/B7/C,C/B3/B4,A7/E7/A6,A2/E3/A3,
Ch[16:1],{16}1-4[8:1],5,{8}5,{16}1-6[8:1],6,{8}6,{4}1-7[8:1]*-3[8:1],
1b,{8}E4/A4/D4,E7/B6/E6/A6,{4}E2/B2,{8}4qq4[4:1]*pp4[4:1],4,
,,
||这是一个标记~
,7-4[8:1],4-8[8:1],7,2,2,
{4}1>5[4:1],5<1[4:1],1,{8}5,5w1[8:1],
,Cf,,6-3[8:1],2,6,8-4[8:1],5,
{4}8/6-2[8:1],6/3-8[8:1],3/E7f,{8}6/4,4/6,
3/7,8-4[8:1],2-5[8:1],8,2,6-8[8:1],6,1,
{4}2,{8}7-2[8:1]/3-6[8:1],2/6,{4}7/3,{8}8/4,3v8[8:1]/7v4[8:1],
,3b/7b/Cf,,6-1[8:1],6,2,3-5[8:1],8,
{4}3/7>2[8:1],{8}4,4,{4}5>2[8:1],{8}5/6,8w4[8:1],
,Cf,,2-5[8:1],2,1-6[8:1],1,4,
{4}4V28[4:1],8V64[4:1],4,{8}E8/B7/A7,E8/B7/A7,
4-2[8:1],3,5-7[8:1],6,5/4,3-6[8:1],6-3b[8:1],3,
{4}8-5[8:1],8>5[4:1],8b,6b,
{8}6/5,4/7>4[8:7],,,2,2h[8:5],,,,,,,{4}5/3,
{8}2/6,7/1w5b[8:1],
,Cf,,7/3,8v6[8:1],4,8,3-8[8:1],
{4}3,{8}5,6,5/3-7[8:1],2,3/5,6-1[8:1]*-3[8:1],
,6b,,4-1[8:1],6/5,4/5,,5/7,
{4}8-6[8:1]*-5[8:1],8-2[8:1]*-3[8:1],8,C,
{8}5,4/6,8,1/2,3/4,5<8[8:1],6,5/3,
{4}1-5[8:1],{8}1,6,{4}6b,{8}7/4,3,
1-5[8:1],1,8-4[8:1],8,7-3[8:1],7,6-2[8:1],6,
{4}5-1[8:1],5/4w8[8:1],4,{8}3/5,5,
6/4,7b>2[8:1],5,7,4-1[8:1],4,5,6,
{4}4b/8bv5[8:1]
||这是一个标记~
,{8}3-7[8:1],2,{4}3b
||这是一个标记~
,{8}4/6,Ch[8:59],
,,,,,,,,,,,,,,,,,E7h[16:83]/E3h[4:21]
||这是一个标记~
,
,,,,,,,,,,,,,,{1}B5h[16:55]/B4h[2:7]
||这是一个标记~
,
{4},,,,,,,,
||这是一个标记~
,
{8},,,,1b,1b,
,7/5,{16}6-8[8:1],4,{8}5,6,1,1,2,
{16}3-1[8:1],4,{8}2,3,6,6,7-4[8:1]/5-2[8:1],6/4,5/7,
,4x/2x,{16}3-1[8:1],5,{8}4,3,8,8,7,
{16}6-8[8:1],5,{8}7,6,3,3,6/2,7/3,8/4,
4/8,6b/1b,{16}7,5,{8}6,{16}4,5,{8}3,3,5/2,
{16}6,5,{8}7,8/3,1/2,{4}2/1,{8}A6/A5/A1/A2/D6f/D2f,A8/A7/A3/A4/D8f/D4f,
,7/5,{16}8,2,{8}1,{16}8,1,{8}7,{4}7/3-1-5-2[8:3],
{8}5,6,7,8,{4}8,{8}1/7,{16}1w5b[8:1],8,
{8}1,Cf/B1/A1/B5/A5/E6/E5/B6/B4,
E
