&title=莫愁乡
&artist=亚细亚旷世奇才
&first=0
&des=Cyanine.
&des_5=Cyanine.
&lv_5=13+
&inote_5=(132){4},4/6<3[2:1],{8}4h[8:1],,,5h[8:1],
,,{4}5/3>6[2:1],{8}5h[8:1],,,4h[8:1],
,,{4}2>7[2:1],{8}8,8,,1,
{4}1,2>7[2:1],{8}1,1,,2,
{4}2,6/3-8[8:1],3/6-1[8:1],6/7<4[8:1],
7/2-8[8:1],{8}2-4[8:1],5,2,7h[4:1],,,{4}D8/A8/D1/A1/E2/B2/C/E5,
{8}7-4[16:1],8,2-5[16:1],1,7-4[16:1],8,
2-5[16:1],1,8-4[8:1],6,8,3,2-6[8:1],1,
{4}7h[8:1],7x/5x,{8}2-6[8:1],5-2[8:1],,,,4,
3<6[8:1],3,,7,1-4[8:1],2,
7/1,6,2,4v7[8:1],,4x/2x,,,,5,
6>3[8:1],6,,2,8-5[8:1],7,
2/8,3,7,5v2[8:1],,5x/7x,,,,8,
7>2[8:1],7,,3,5-8[8:1],6,
5/3-7[8:1],2,3/4>1[8:1],4,,5>6b[4:1],,,,4>6[4:1],
5,5,,3,2h[8:3],5,
6,7,{12}3,4,5,6,5,4,3,1,7,
{4}5/4,{12}6,5,4,3,4,5,6,8,2,
{8}4/5,5,{12}3,3,4,5,5,4,3,3,4,
{4}6/5-3[12:1],{12}8,8,1,2,2,1,8,8,1,
{4}8/2-6[8:1],2/4,{8},5,4/6,3,
5/3,6,4/5,3,5/4,6,5/4-8[8:1],3,
4/5-1[8:1],6,{12}7/5,8,2,6,8,2,6-8[12:1],8,2,
{4}6,{12}2,4,6,2,4,6,2>7[24:5],4<1[24:5],6<3[24:5],
{4}2b,{8}6x,{16}6,5,{8}7xh[8:1],{16}3,4,{8}2-5[8:1],8/1,
2/7,7,8/1-5[8:1],2,1/7-3[8:1],6,7/5<3[4:1],4,
{4}5,{8}5x-1[8:1],4,3x<6[8:1],2,8v3[8:1],8,
7>2[8:1],7,5-7[8:1],4,5-3[8:1],3,5v2[8:1],6,
{4}5/7h[4:1],B2/B1,{8},6h[8:1],4v7[8:1],3,
{4}4/2h[4:1],B7/B8,{8},2h[8:1],8v3[8:1],7,
8/6,{16}5,4,{8}6,2/8,,3/4,7/1,6/2,
5/3,4,3,7/1,,6/5,{4}8/2pp2[4:1],
{8},7,7xh[8:1],8,6xh[8:1],5,3-8[8:1],5/4,
3/6,6,5/4-8[8:1],3,4/6-2[8:1],7,6/8<2[4:1],1,
{4}8,{8}8x-4[8:1],1,2x<7[8:1],3,5v2[8:1],5,
6>3[8:1],6,8-6[8:1],1,8-2[8:1],2,8v3[8:1],5,
8,7,8v3[8:1],7,8/6,7,8v3[8:1],7,
{4}8/6h[4:1],{8}1v6[8:1],2,1/3,2,1v6[8:1],2,
{4}1/3h[8:1],{8}4/2,3/1-6[8:1],,1/4-8[8:1],{4}2,
{8}3,6,5/7,6/8-3[8:1],,8/5-1[8:1],{4}7,
{8}6,6,{4}7/5,{8}7-3[8:1],4v6[8:1],,,,5,
6>3[8:1],6,,2,8-5[8:1],7,
8/2z6[4:1],3,7,5-1[8:1],,7x/5x,,,,4,
3<6[8:1],3,,7,1-4[8:1],2,
1/7s3[4:1],6,2,4-8[8:1],,4x/2x,,,,1,
2<7[8:1],2,,6,4-1[8:1],3,
4/6-2[8:1],7,6/5<8[8:1],5,,4<8b[16:3],,,{4}4<3[32:7],
C,{32}4bx,5x,6x,7x,8x,1x,2x,3x,{4}Cf/4bx<3b[32:7],
{8},,5,{16}5,6,{8}4q8[8:1],3,4v1[8:1],3,
4,3,2h[8:1],{16}1,2,8p4[8:1],7,{8}1,8v3[8:1],1,
8,{16}1,2,{8}2-7[8:1],{16}1,1,{4}2b/6h[8:1],{16}6-3[8:1],5,{8}5,
{4}6b/2h[8:1],{8}7/2-4[8:1],5,2-6[8:1],8,7/2-4[8:1],5,
2-6[8:1],8,{16}2,5,{8}5,{16}4p8[8:1],5,{8}5,4v7[8:1],5,
4,5,6h[8:1],{16}7,6,{8}8>2[8:1],7,8-3[8:1],7,
8,7,{16}7-2[8:1],8,{8}8,{4}7b/3h[8:1],{16}3-6[8:1],4,{8}4,
{4}3b/7h[8:1],{8}2/7-5[8:1],4,7-3[8:1],1,2h[16:1]/7-5[8:1],4,
7-3[8:1],1,7x,8,6xh[8:1],5,3-8[8:1],5/4,
3/6,6,5/4-8[8:1],3,4/6-2[8:1],7,6/8<2[4:1],1,
{4}8,{8}8x-4[8:1],1,2x<7[8:1],3,5v2[8:1],5,
6>3[8:1],6,8-6[8:1],1,8-2[8:1],2,8v3[8:1],5,
{4}8,{8}8xv3[8:1],7,8/6,7,2q6<4[8:3],8,
{4}2/8xh[8:1],{8}6x,6,{2}7/5p3b[4:1],
{4}C,{8}2,1-6[8:1],3,4-8[8:1],2,4,
{4}3,{8}5/7,6/8-3[8:1],,8/5,{4}5w1[8:1],
5b,{8}3xh[8:1],4,2xh[8:1],1,7-4[8:1],1/8,
7/2,2,1/8-4[8:1],7,8/2-6[8:1],3,2/4>6[4:1],5,
{4}4,{8}4x-8[8:1],5,6x>3[8:1],7,1v6[8:1],1,
2<7[8:1],2,4-2[8:1],5,4-6[8:1],6,4v7[8:1],2,
{4}4/2h[4:1],B7/B8,{8},3h[8:1],5v2[8:1],6,
{4}5/7h[4:1],B2/B1,{8},7h[8:1],1v6[8:1],2,
{4}1/3,{8}4-1b[8:1],5-8b[8:1],4,5,{4}E1/B8/B1,
{8},,A1,A8,E1,B8,{4}B1,
E
