&title=Sphalerite
&artist=RYOQUCHA & CS4W
&first=1.5652174
&des=AJianHallucination
&lv_5=14.9
&inote_5=(230)
{4}Ch[2:1]/B2/B4/B6/B8,,,,
{32}1x-4-7-3-6-8-3-6-2-4-8[8:61],28,37,46,5,,,,
{4},,,,,,,5h[8:7],,,,8h[8:5],,,
{16}5,,5,,4h[8:15],,,,
{4},,,,,,,5h[8:7],,,,6h[8:3],,7,
{8},,
{16}5h[8:7]/1,,,,1,,,,2,,,,3,3,,,8/4h[8:7],,,,8,,,,7,,,,6,6,,,
{16}5/1h[8:7],,,,5,,,,6,,,,7,7,,,8h[8:7]/4,,,,4,,,,3,,,,2,2,,,
{8}15,15,26,26,37,37,48,48,15,15,48,48,37,37,26,26,
{16}1,5,1,5,2,6,2,6,3,7,3,7,4,8,4,8,
{16}4x,5,6,7,8,1,2,3,
{32}48,7,6,5,4,3,2,1,8,7,6,5,4,3,2,1,8b-4[4:16],,,,,,,,
{4},B1/B2,,B7/B6,,B2/B3,,B5/B6,
{16}3,5,3,5,3,5,3,5,2,6,2,6,2,6,2,6,1,7,1,7,8-4b[8:1],,,,8,Chf[16:1],,,
{32}3hx[8:2],,,,,,,,,,,,25,16,7hx[8:2]/8hx[8:2],,,,,,,,,,,,,,,,,,
{32}5hx[8:2]/6hx[8:2],,,,,,,,,,,,47,38,1hx[8:2]/2hx[8:2],,,,,,,,,,,,,,,,,,
{32}1hx[8:2]/8hx[8:2],,,,,,,,,,,,27,36,4hx[4:1]/5hx[4:2],,,,,,,,,,3,2,1hx[8:5],,,,,,,,,,6,7,8hx[4:1],,,,,,,,,,Chf[4:1],,,,,,,,,,,,,,,,
{32}1hx[4:1]/2hx[4:1],,,,,,,,,,,,38,47,5hx[4:1]/6hx[4:1],,,,,,,,,,,,,,,,,,
{32}7hx[4:1]/8hx[4:1],,,,,,,,,,,,16,25,3hx[4:1]/4hx[4:1],,,,,,,,,,,,,,,,,,
{32}4hx[4:1]/5hx[4:1],,,,,,,,,,,,36,27,1hx[4:2]/8hx[4:1],,,,,,,,,,7,6,5hx[8:5],,,,,,,,,,2,3,4hx[4:1],,,,,,,,,,Chf[4:1],,,,,,,,,,,,,,,,
{8}5<1[8:5]/1,,2,,3,,4,,
{8}5>1[8:5],,7,,6,,5,5,
{8}4-8^6[8:5],,2,,3,,4,,
{8}5-1^3[8:5],,7,,6,,5,,
{8}5pp1[8:5],2x,2,2,2,2,
{16}2,3,4,,
{8}4qq8[8:5],7,7,7,7,7,
{16}7,6,5,,5,1,5,2,5,3,5,4,
{16}5,6,7,8,1,2,3,4,5-1b[8:1],,,,5,,,,
{8}2x/7x,2x/7x,2x/7x,,1hb[8:15]/8hb[8:1],,,,,,,,
{32}A8f,B8f,Cf,B4f,A4f,,,,,,A2f,B2f,Cf,B6f,A6f,,,,,,A7f,B7f,Cf,B3f,A3f,,,,,,,,
{8}5pp1[4:4]/2,,2,,1,,2,2,3,3,4-8b[8:1],,4,,26,,
{8}7qq4[4:4]/1,,2,,3,,3,3,2,2,1-5b[8:1],,1,
{16}6,7,8,1,2,3,
{8}4qq8[4:4],,5,,6,,7,7,6,6,5-1b[8:1],,5,,2hx[4:1]/7hx[4:1],,
{8},,
{16}1b/7,6,5,4,,,8b/2,3,4,5,,,2b/8,7,6,5,,,7b/1,2,3,4,,,1b/7,6,5,4,
{8}1pp5[4:4],,8,,7,,6,6,7,7,8-4b[8:1],,8,,35,,
{8}6pp1[8:8],,4,,3,,2,2,3,3,4-8b[8:1],,4,
{16}7,6,5,4,3,2,
{8}1qq6[8:8],,2,,3,,,,4hx[8:1],,3hx[8:1],,2hx[8:1],,1hx[4:1]/8hx[4:1],,,,
{16}B1/7b,6,5,4,,,B8/2b,3,4,5,,,B2/8b,7,6,5,,,B7/1b,2,3,4,,,B1/7b,6,5,4,,,,,
{16}4,5,4,5,3,6,3,6,2,7,2,7,1,8,1,8,2,7,1,8,
{8}7x-4[8:1]/2x-5[8:1],1x/8x,2x/7x,,
{8}3x/6x,2x/5x,1x^6[8:1]/4x,,
{4}1x^4[8:1]/4hx[8:1],1x^6[8:1]/6hx[8:1],1x^4[8:1]/4hx[8:1],1x^6[8:1]/6hx[8:1],1x^4[8:1]/4hx[8:1],1x/6hx[8:1],
{8}3x/6x,4x/7x,8x^3[8:1]/5x,,
{4}8x^5[8:1]/5hx[8:1],8x^3[8:1]/3hx[8:1],8x^5[8:1]/5hx[8:1],8x^3[8:1]/3hx[8:1],8x^5[8:1]/5hx[8:1],8x/3hx[8:1],
{8}3x/6x,2x/7x,1x/8x,,1-5b[8:1]/8qq4[1:1],,1,,4,,3,,2-6[8:1],,2,,
{16},,,5,4h[4:1]/6h[4:1],,,,,2,1h[4:1]/3h[4:1],,,,,7,6h[4:1]/8h[4:1],,,,,4,3h[4:1]/5h[4:1],,,,,1,8/2h[4:1],,,,
{16}6^1[8:1],,,,6,,,,5^2[8:1],,,5,56,,,,1^6[8:1],,,,12,,,,2^5[8:1],,,2,12,,,,
{16}7^4[8:1],,,,78,,,,8^3[8:1],,,8,78,,,,4^7[8:1],,,,34,,,,3^8[8:1],,,3,34,,,,
{8}2x/5x,3x/5x,4x/5x,,4qq8[1:1]/5-1b[8:1],,5,,8,,7,,6-2[8:1],,6,,,
{16},18,2h[4:1]/7h[4:1],,,,,45,3h[4:1]/6h[4:1],,,,,1,2h[4:1]/8h[4:1],,,,,6,7h[4:1]/5h[4:1],,,,,3,2h[4:1]/4h[4:1],,,,1<1<1[4:12]/8,Cf/B1/B8/B5/B4,,,
{4},,,,,,,,,,,1bs5[4:1],,,
{32}1,8,7,6,5,4,3,2,1>8[1:7],,,,,,,,,,,,,,,,,,,,,,,,,,,,,,,,
{1}B2/A2,B3/A3,B4/A4,B5/A5,B6/A6,B7/A7,B8/A8,
{8}1pp4[1:1],,7,,6,,5,,4-8[4:1],,5,,6,,7,,
{8}8qq5[1:1],,2,,3,,4,,5-1[4:1],,4,,3,,2,,
{8}1pp4[1:1],8,7,7,6,6,5,5,4-8[4:1],5,6,6,7,7,6,6,
{16}5,4,3,2,1,8,7,6,52,3,4,5,6,7,8,1,
{32}2/6,5,4,3,2,1,8,7,6,5,4,3,2,1,8,7,
{16}6/A3,A4,A5,A6,A7,A8,A1,A2,
{16}3hx[4:1]/E8f,B8,B1,E2,,,,,1bx,B1,C,,4,5,6,7,8,1,2,3,4,5,6,7,
{16}8/A4,1/A5,2/A6,3/A7,,,,,
{16}7hx[4:1]/E4f,B4,B5,E6,,,,,5bx,B5,C,,8,1,2,3,4,5,6,7,8,1,2,3,
{16}4/A8,5/A1,6/A2,7/A3,,,,,
{32}5hx[4:1]/6hx[4:1],,,,,,,,,,,,47,38,1hx[4:1]/2hx[4:1],,,,,,,,,,,,,,,,,,3hx[4:1]/4hx[4:1],,,,,,,,,,,,25,16,7hx[4:1]/8hx[4:1],,,,,,,,,,,,,,,,,,
{32}1hx[4:1]/2hx[4:1],,,,,,,,,,,,38,47,5hx[4:1]/6hx[4:1],,,,,,,,,,,,,,,,,,7hx[4:1]/8hx[4:1],,,,,,,,,,,,16,25,3hx[4:1]/4hx[4:1],,,,,,,,,,
{16}5,6,7,8,
{4}1<5[8:5],3,2,1h[8:6],4,5,6,
{8}52,41,8>4[8:5]/3,,6,,7,,8h[8:6],,
{4}5,4,3,
{8}83,27,16,6/2,2,2,3,3,
{16}5,4,5,,
{8}6,6/3,3,3/7,7,7,
{16}1,8,1,,
{16}7,2,6,3,5,4,6,3,7,2,8,1,8,1,8,1,8z4[4:1],,,,,,,,,,,,
{16},,4,3,2h[4:7]/Chf[4:7],,,,,,,,,,,,,,,,,,,,,,,,,,,,,,,,
{16}4,3,4,,1^6b[8:1],,5,,1^4b[8:1],,4,,1^6b[8:1],,5,,1^4b[8:1],,4-8b[8:1],,7-3[8:1],,6,,7,,
{8}1,2,3x,4-8b[8:1],6-1[8:1],4,6,2-5b[8:1],8-4[8:1],2,8,3,3,2-8b[8:1]/6-4[8:1],26,2-6b[8:1]/6-2[8:1],,26,,7,3,
{16}2x,1,3,8,4,7,3,6,2,7,1,8,
{8}1-5[8:1]/7-5[8:1],,1^4b[8:1]/7,,16,7,,Chf[8:3],3-7b[8:1],,3,,
{8}8^3[8:1],3,8^5[8:1],4,8-4[8:1],2-5b[8:1],8,2,6-1[8:1],3-8b[8:1],6,3,
{16}7,6,5,,
{8}5-1[8:1],2,1^6[8:1],2,3-7b[8:1],2,3,5,16,,27,3/C/B7/B8,,,
{16}12,,3h[16:1]/8h[16:1],,4,7,5,6,4,5,3,6,2,7,1,6,78,,1h[16:1]/6h[16:1],,2,5,3,4,2,5,3,6,4,7,3,8,2h[1:1],,,,
{8}8,8,7,7,6,6,
{16}5,2,5,3,5,4,5,,3,6,3,7,3,8,3,,
{16}4b/8b,,,7,,,6,,,1b/5b,,,2,,3,,1-5[8:1],,,,8-4[8:1]/1,,,,78,,,,E2/E8/B7/B3/E1/C/E4/E5/E6,,,,
{8}3x/8x,2x/7x,
{4}1x^3b[8:1]/6x-3[8:1],1x-5b[8:1]/6x^8[8:1],1x^3b[8:1]/6x-3[8:1],1x-5b[8:1]/6x^8[8:1],1x^3b[8:1]/6x-3[8:1],1x-5b[8:1]/6x^8[8:1],1x/6x,
{8}4x/7x,3/6x,
{4}2x^8b[8:1]/5x-7[8:1],2x-6b[8:1]/5x^3[8:1],2x^8b[8:1]/5x-7[8:1],2x-6b[8:1]/5x^3[8:1],2x^8b[8:1]/5x-7[8:1],2x-6b[8:1]/5x,2x/5x,
{8}5-1[1:1],6x,7,,1,,3,,5b,,6,,7-3b[8:1],,7,,1-5[1:1],2,3,,5,,7,,1b,,2,,3-7b[8:1],,3,,
{16}1-4[8:1]/6,,,,1/6,,,,7/5-8[8:1],,,5,57,,,,1-4[8:1]/6,,,,1/6,,,,7/5-2[8:1],,,5,57,,,,
{16}8-5[8:1]/3x,,,,3/8,,,,2/4-1[8:1],,,4,24,,,,8-5[8:1]/3x,,,,3/8,,,,2/4-7[8:1],,,4,24,,,,
{8}2-6[1:1],3,4,,6,,8,,2b,,3,,4-8b[8:1],,4,,
{16}3b/6,7,8,1,,,5b/3,2,1,8,,,7b/2,3,4,5,,,3b/8,7,6,5,,,
{32}1b/7b,6,5,4,,,,,8b/2,3,4,5,,,,,1b,28,37,46,5bz1[8:29]*s1b[8:29],
