&title=バッドエンド・シンドローム (Orchestra Arr.)
&artist=アリスシャッハと魔法の楽団
&first=0
&des=Yuzukeai
&lv_5=13
&des_5=Yuzukeai
&inote_5=(126)
{2},
{4},
{24},,,,3,4,
{4}56,
{12}E4,E3,E2,
{4}6h[4:2],
1h[4:1],
{4},
{12}E6,E7,E8,
{4}3h[4:2],
8h[4:1],
{4},
{12}E3,E2,E1,
E7,E6,E5,
{4}1h[4:1],
{4}3,
5,
{2}6xpp7[4:1]/4,
{4}2-5[16:3],
{12}7,,1-5[16:3],
{4}1,
{12}4,,2,
{4}2-5[4:1],
6,
8,
{12}37,,6,
{4}6-1[16:3],
{12}3,,5,
{4}5-1[16:3],
{12}8,,6,
{4}6>7[4:2],
{2}2,
{12},,6x,
{4}5xh[4:1],
{12}8,4,6,
3,7,5,
6,2,4h[12:4],
{4},
{12}3,7,5,
6,2,4,
{4}8,
{4}5x^8[8:1],
{12}51,,3,
{4}1x^6[8:1],
{12}13,,1,
{4}5xv4[16:3],
2,
3x^8[8:1],
{12}37,,5,
{4}7x^2[8:1],
{12}76,,5,
{4}4xqq4[4:1],
5,
{4}6-8[8:1],
2-6[8:1],
1-5[8:1],
3x>4[4:3]*p1[4:3],
{1},
{4}2h[4:1],
8h[4:1],
5h[4:1],
3x>6[4:2],
{2},
{4}1h[4:1],
3>6[4:2],
{2},
{4}2h[4:1],
3q5[4:2],
{1}2>2[4:3],
{12}7,,4,
8,,2,
{4}6-8[8:1],
3-5[8:1],
{2}1xh[2:1],
4-2[8:1]*^2[8:1],
{12}6,,1,
5,,3,
{4}7-5[8:1],
2-6[8:1],
{2}4h[2:1],
{4}8-4[8:1],
{32}8,B8,C,B4,,,,,
{4}26,
{12}3,3,5,
{4}2-4[8:1],
6,
{4}37,
{12}8,8,5,
{4}1-5[8:1],
3,
{12}2,2,6,
1-4[8:1],1,5,
{4}5-8[8:1],
2,
{12}7,7,1,
5>8[12:6],5,5,
{2}4<7[4:1],
{2},
B3/B7,
{2}6/2^7[2:1],
{4},
5>6[16:5],
{4}1,
4<3[16:5],
8,
5,
{12}56,,2,
4,,4,
3,7,5,
65,,6,
{12}2,4,3,
6,5,7,
1,5,3,
8,8,8,
{24}5b,6,7,8,1,2,
{4}3>6[4:1],
6q4[4:1],
{12}4,,6,
{4}6-3[8:1],
1-6[8:1],
4-7[8:1]/1-4[8:1],
1-5[8:1]/4,
{4}1^6[8:1]/8,
{12}4-8[8:1],3,2,
{4}1^4[8:1],
61,
{24}7^5[16:1],,,,4x,3x,
{4}2-6[8:1],
2/4^7[8:1],
{24}1x,2x,3x,4x,,,
{4}5-3[8:1]/8,
{12}1-5[8:1],8,7,
{4}6-1[8:1],
16,
{4}8-4[8:1],
{12}4,3,2,
{4}1^4[8:1]/5,
{24}5x/1,6x,7x,8x,,,
{4}2^7[8:1]/6^3[8:1],
26,
{12}1,2,3,
45,6,7,
{12}1>7[12:3],8,3,
{4}1-5[8:1],
1,
{12}8,8,8,
{24}4b,3,2,1,8,7,
{4}6<3[4:1],
3p5[4:1],
{12}5,,3,
{4}3-6[8:1],
8-3[8:1],
5-2[8:1]/8-5[8:1],
8-4[8:1]/5,
{4}8^3[8:1]/1,
{12}5-1[8:1],6,7,
{4}8^5[8:1]/5,
2^5[8:1]/8,
{12}28,,7,
8,6,1,
2,3,5,
16,7,3,
{4}1^6[8:1]/4,
{12}5-1[8:1],4,3,
{4}5/2-6[8:1],
25,
{4}4-7[8:1],
{12}1,2,3,
{32}4/E1,E2,E3,E4,E5,E6,E7,E8,
A1,A2,A3,A4,A5,A6,A7,A8,
{4}Cf/D1,
{12}8,,8,
2,4,3,
45,,2,
{12}34,,56,
,18,7,
2^7b[16:1]/6,,4x/2x,
,5,1,
{12}3b/7b,,3,
26,5,3,
26,5,3,
2,2,2,
{12}25,,6,
37,4,6,
3-8[8:1]/7,7,7,
{4}3,
{24}5,,E2,E3,E4,,
{12}7,5,8,
{24}4,,E8,E7,E6,,
{12}2,4,1,
{12}25,6,5,
47,3,4,
{2}1-5[8:1]/5-1[8:1],
{12}3x/7x,,2,
3,4,53,
2,1,8,
75,4,3,
{12}6/2,5,4,
73,8,1,
2/5<4[12:3],6,7,
{4},
{12}8x,7,6,
2x/5x,1,8,
7x/3x,2,1,
8x/4x,3,2,
{4}4p6b[4:1],
3,
5q3[4:1],
6,
{1}4bqq5[2:3]*>5[2:3],
{1},
{4}36,
{12}2,,2,
{4}4h[4:1],
3-1[8:1],
{4},
{12}7,,7,
{4}5h[4:1],
{12}6,,4,
{4}4,
{12}25,3,4,
5,7h[12:5],,
{4}5h[4:1],
{4},
{12}74,6,5,
{4}4,
27,
{4}36,
{12}7,,7,
{4}5h[4:1],
6-8[8:1],
{4},
{12}2,,2,
{4}4h[4:1],
{12}3,,5,
{4}5,
{12}74,6,5,
4,2h[12:5],,
{4}4h[4:1],
{4},
{12}25,3,4,
{4}5,
{24}73,,,,7x/E3,6x/E2,
{24}5x/E1f,
