&title=CRAZY FOR YOU
&artist=焼塩檸檬 (CV.若山詩音)
&first=0.02
&des=GAHOU
&lv_5=12
&inote_5=(162)
{1},
{8}6,5,4,3h[4:1],,5,4,3,
{8}6,5,4,3-6[4:1],,6,5,4,
{8}2,1,8,7,6,5,4,3,
{8}6,5,4,3-6[4:1],,6,5,4,
{8}3,2,1,1-4[4:1],,4,5,6,
{8}7,5,8,8-5[4:1],,5,4,3,
{4}2b<4[4:1],2b/6,1bv7[8:1]*v4[8:1],1b<3[2:1],
{8},1,1,1,1w5[8:1],1,1,,
{4}5h[2:1]/2,2,2>4[8:1],5,
{4}4h[2:1]/7,7,7<5[8:1],4,
{4}5h[2:1]/1,1,1-4[8:1],5,
{8}6h[8:1],,8z4[8:3]/5h[8:1],,,3,3,,
{8}4/2h[4:1],,4,,2h[8:1]/4<7[8:1],,3h[8:1],,
{4}8h[2:1]/5,5,5>2[8:1],7-4[8:1],
{4}1-6[8:1],3-8[8:1],5-2[8:1],7,
{16}8/6,,,4/2,,,7/5,,,8/1,,,4/3,,2,1,
{8}8/3<6[8:1],,7,,1/6>3[8:1],,2,2,
{4}1p5[8:1]/3,3,4p8[8:1]/5,6,
{4}7p3[8:1],2p6[8:1],4p8[8:1],3,
{8}2h[8:1]/6h[8:1],,5h[8:1]/1p8[8:3],,,7,7,,
{4}5<8[8:1],1b,2h[4:1],3h[4:1],
{4}4>1[8:1],8b,6<1[4:1],1>4[4:1],
{4}4<8[4:1],8>4[4:1],4<8[4:1],1,
{16}3,,4,,5/6,,7,,5/3,,2,,6,5,6,,
{8}7-5[8:1],8-2[8:1],7,8z4[4:1],,3,3,,
{8}2-4[8:1],1-7[8:1],2,1s5[4:1],,6,6>3[4:1],,
{8}3>8[4:1],,8<5[4:1],,5-1[16:3],,2,,
{8}3h[8:1],7h[8:1],1h[8:1],4-8[8:1],,1,1,,
{8}7<4[8:1],3>8[8:1],7,3s7[4:1],,2,2,,
{8}4>1[8:1],8<5[8:1],4,8z4[4:1],,6,6,,
{8}7-4[8:1]/5,8,7/3,2-5[8:1],1,2/6,7-3[8:1],8,
{8}7/2,1-5[8:1],8,1/6,7,8/1,{16}1qq1[4:1],8,1,8,
{8}1b>6[16:3],,,7,8-4[8:1],1,8,2,
{8}3b>8[8:1]/5b<8[8:1],,3bqq4[16:5]/5bpp4[16:5],,5b/3b,,,,
{8}2-5[8:1],3,6-2[8:1],7,4-1[8:1],3,7-3[8:1],6,
{8}7b-1[8:1]/3b-1[8:1],,7bV58[16:3]/3bV52[16:3],,7b/3b,,1qq1[4:1],,
{8}1bpp1[4:1]/6b,,,5,5<1[4:1],,,2,
{4}2q7[4:1],7p2[4:1],2,8-5[8:1],
{4}8/3-8[8:1],6-3[8:1]/3,1w5[8:1]/6,1b>8[2:1],
{8},8,1,2,3,4,5/8,1>4[8:1],
{8}1h[8:1],,,5<8[8:1],5h[8:1],,,1/5,
{8}2/6,3/7,4qq4[4:1]/8qq8[4:1],,4b/8b,,,4-7[8:1],
{8}6h[8:1],,,8-3[8:1],2h[8:1],,,2/5,
{8}6/3,4/7,5>2[8:1]/8<5[8:1],,5b-1[8:1]/8b,,2pp2[4:1],,
{8}8b/2b<5[4:1],,,4,4q1[16:3],,,1,
{8}2-5[8:1],,6-1[8:1]/2,,6/3,4,8b-4[8:1]/5b,,
{8}8b/2b<5[16:3],,2b/6b,,4bv7[8:1]*v1[8:1],,4b,,
{8},5/3,6/4,7/5,5-8[8:1]/4-1[8:1],6/3,5/4,,
{8}6/3>8[8:1],,5,,7,8,7/8-3[8:1],,
{8}6<1[8:1],,4,,2,1,2-4[8:1],,
{4}8-4[8:1]/2,8/3-1[8:1],5-1[8:1]/3,5/4>6[16:5],
{8},6,5-8[8:1],5,2,3,{16}4,8,4,8,
{8}4>1[8:1],,7,,6,8,6/8-4[8:1],,
{8}5<8[8:1],,2,,3,1,3-5[8:1],,
{4}7-4[8:1]/3,7/2-6[8:1],8-4[8:1]/2,8b/1b>8[1:4],
