&title=淵底のグレイ・ユークロニア
&artist=打打だいず vs. siromaru vs. Tanchiky
&first=0
&des=SSPU Fumen Team
&clock_count=4
&lv_5=14+
&inote_5=(210)
{1},
{4},,,,,,,4xw8[4:18],,,,,,,,,,,,,,,,,,,,,
{4}3,4,{6}5,6,7,{8}8,1,2,3,{16}4,5,6,7,1-5[8:1]/8,,,,
{8}17,6-2[8:1],,26,1>4[8:1],,17,6>3[8:1],,36,2-6[8:1],,2b/8-4[8:1],,8b/4,,
{8}82,3-7[8:1],,73,8<5[8:1],,82,3<6[8:1],,63,7-3[8:1],,7b/1-5[8:1],,1b/5,,
{8}46,7-3[8:1],,37,4>1[8:1],,46,7>2[8:1],,27,3-7[8:1],,3b/5-1[8:1],,5b/1,,
{8}53,2-6[8:1],,62,5<8[8:1],,53,2,{12}1,3,2,8,6,7,1,4,2,8,5,7,
{8}2/7-4[8:1],2,2/7,2,2/1-4[8:1],2,2/1,2,3-8[8:1],,3,7-1[8:1]*-5[8:1],,7,,2,
{8}7/2-5[8:1],7,7/2,7,7/8-5[8:1],7,7/8,7,6-1[8:1],,6,2-7[8:1]*-5[8:1],,2,,Chf[8:17],
{16},,,,E6,E7,E8,,,,,,E4,E3,E2,,
{8}E7,E6,E5,E4,,E2/E3,,E7/E8,,,
{8}6,57,,3,2-5[8:1]/4,,2/7-4[8:1],,7,,27,1s5[8:1]/8z4[8:1],,1b/8b,
{16}
,,3,4,2,,6,5,74,,8,,34,,1,,6-1[8:1],,3-8[8:1],,6,,3,,7,,7w3[8:1]b/8,6/1,5/2,,7b,,
,,6,5,7,,3,4,25,,1,,65,,8,,3-8[8:1],,6-1[8:1],,3,,6,,5b,,2w6[8:1]b/1b,,,,2b,,
,,3,4,2,,6,5,74,,8,,34,,1,,6-1[8:1],,3-8[8:1],,6,,3,,7,,7w3[8:1]b/8,6/1,5/2,,7b,,
,,6,5,7,,3,4,25,,1,,65,,8,,3-7[8:1],,24,,3,,,,1b/5b,,3bw7[8:1]b/7b,,,,3b,,
{16},,,,1>4[8:1],,7,6,1<6[8:1],,6,5,1>4[8:1],,5,4,
{16}1<6[8:1],,6,5,1-5[8:1],,5,4,1,,7w3b[8:1],,,,7,,
{8},1,7,2-5[8:1]/6-1[8:1],1x/8x,2<7[8:1]/6>3[8:1],,2/6b,
{8},3,1/5,4<7[8:1]/8>3[8:1],2x/6x,4-1[8:1]/8-5[8:1],,4b/8,
{8},6,8,1,3,2v5[8:1]/8v5[8:1],,2/8,
{8},3,1,8,6,7v4[8:1]/1v4[8:1],,7/1,
{8},,,1-5[8:1]/7,2/8,3p1[2:1]/1,,3bxh[8:3],
{2},{8}2w6[8:1],,{16},Cf,,,
{8},2x,3-7[8:1]/5,,3,1-6[8:1],1,2/1,
{8},3x,6-2[8:1]/4,,6,8-3<4v1[2:1],8,6/8,
{8},,,,8w4b[150#8:1],,,8b,
{16},,8/1,,2,,2,,8,,8,,1,,1,28,
{16}3h[8:7]/7h[8:7],,,,,,,,,,,,,,26,15,
{16}84,,,,,,2,4,2,,7,5,7,,1,8,
{16}1-5[8:1],,28,,1x,,,,8,,4,,7,,6,,
{8},1/7,3/5,2/8,4/5,1/3,2/8,1/7,
{8}6/8,5/7,4x/6xqq4<1b[8:3],4x/6x,4bhx[4:1]/6bx,,,3h[4:1],
{8},E6,2h[4:1],,E7,1h[4:1],,8,
{16},,,1,8,1,8,,2,,7h[8:2],,,,2>1[2:1],,
{8},,,,,,,
{16}3h[8:1]/8h[8:1],,,,2,1,2,,61,,61,,7,8,7,,
3h[8:1]/8h[8:1],,,,2,1,2,,6,,7x/8x,,,8x/1x,,,1x/2x,,1xh[4:1]/2x-5[8:1],,,,2,,,,12,,87,,56,,34,,,,
2b,,2b,,,,1,8,2,7,3,6,4-8[8:1],,,,46,,7-3[8:1],,,,7,,1-5[8:1],,8,,1,,,,8,7,6h[4:1],,,,{4}Cfh[2:1],,
{1}8-5[4:5]*>5[4:5],,2<7-3<6[4:5],,2-8[4:5]/1-5[4:5],,
{16}7x,8x,7x,8x,7x,8x,7x,8x,7hx[1:1],,,,,,,,Chf[2:1],,,,,,,,,,,,,,,,
{8}2x-5[8:1],1,2,7x-4[8:1],8,7,1xq5[8:1],8,1,8xp4[8:1],1-3<4b[8:1],8,1x-7<6b[8:1],,1x,,
3x-8[8:1],4,3,6x-1[8:1],5,6,4x-8[8:1],5,4,5x-1[8:1],4-1b[8:1],5,4x-7b[8:1],,4x,,
{16}1,,1,,7,,7,,3,,3,,5,,4,5,4,,4,,5,,5,,3,,5,4,7,,4,5,2,1,2,1,3,8,3,8,4,7,4,7,5,6,5,6,
3,4,3,4,2,5,2,5,{32}1x,2,3,4,5,6,7,8,1x,2,3,4,5,6,7,8,1b,,,,,,,,
{4},,,
{2}3h[2:1],C,
{16}2b>5[8:1]/7b,,,,2-6[8:1],8,7,,2-8[8:1],,,,8-4[8:1]/2,7,6,,7x,,7,6,5,,1bx-5[8:1],,,,1bx,,,,
2h[8:2]/8h[8:2],,,,,,1,1,1,,2h[16:3]/6h[16:3],,,,8,8,8,,87,,87,1-4[8:1]/6,25,,1x-6[8:1],,,,1x,,,,
25,,,,16,,7,8,7-2[8:1],1,7,8,7x,,,,
61,,,,52,,3,4,3-6[8:1],5,3,4,3x,,,,
{64}8b,7x,6hx[16:5],,{16},,,2,4,{64}B3,E4,,,{16},7,5,{64}B6,E6,,,{16},1,3,{64}E2,B2,,,
{16},8,6,{48}A7f,B7,C,B3,A3,,,,,
A2f,B2,C,B6,A6,,,,,
A8f,B8,C,B4,A4,,,,,,,,
{16}1-5[8:1],,,,1,,
7b<4[8:1],,,,7-3[8:1],1,2,,7-1[8:1],,,,1-5[8:1]/7,2,3,,2x,,2,3,4,,8bx,,,,6bx,,,,
7h[16:6]/1h[16:6],,,,,,{32}2,3,4,5,6,7,{16}8,
1bx-4b[16:1],,,5bx-8b[16:1],,,3bx-6b[16:1],{32},,7bx-2b[16:1],,,,{16},,4,,4h[2:1],,,,{4},
{8}Cf,
{1},
{16},,E6f/A6/D6/A5/B6/B5/2bh[16:1],,,E4f/A3/D4/A4/B3/B4/7bh[16:1],,,
1bh[16:1]/Cf,,,,8b/7b,,B7/B8/B6/B1/Ch[2:1],,,,,,,,,,,,,,1b/2b,,B2/B1/B3/B8/Ch[2:1],,,,
{4},,{16},,1,,8,,{8}1,2,3,4,5,6,7,8,
{16}1,2,3,4,5,6,7,8,
{32}1,2,3,4,5,6,7,8,1,2,3,4,5,6,7,8,
{4}1h[4:1],
{16},,,,8,8,8,8,8,8,8,8,8,,1,8,{8}1,8<5b[8:1],1-5[8:1],8-4b[8:1],1,,
{16}1>4[8:1],,4,4,1,,8<5[8:1],,5,5,8,,2-6[8:1],,6,6,2,,7-3[8:1],,3,3,7,,
{16}1,2,8,7,2,3,7,6,
{16}4>1[8:1],,5,6,4,,8<5[8:1],,1,2,8,,2-6[8:1],,5,6,2,,7-3[8:1],,4,3,7,,
{16}1,8,1,8,2,7,2,7,
{8}1,1,8,8,3,3,6,6,
{16}4,5,4,,3,5,2,4,1,,1,3,1,3,1,,
{32}1/4x,2/5x,3/6x,4/7x
,5/8x,6,7,8,1,2,3,4,5,6,7,8,1bx/5x,4,3,2,1,8,7,6,5bx/1w5[42#32:1],2,3,4,5,6,7,8,{1}1h[2:1],{64}1b,Cf,,,,,,,,,,,,,,,
{4},,,,,,,,,,C/B7/B6/B2/B3,
{8}2-6[8:1],,1/2,8w4b[8:1],,A8f,,2b/6b,,
{16}2,4,3,4,1,5,4,5,
{24}1-7-5[8:1],2,3,4,,,1b,,,,,,
{16}2,1,4,5,1,8,3,4,
{24}1>4b[8:1],8,7,6,,,1bx,,,,,,
{16}7,8,6,1,8,2,7,3,
{24}8<5b[8:1],1,2,3,,,8bx,,,,,,
{12}2/4,3,4,3/5,4,5,4/6,5,6,5b/7b,
{48},,
{16},,
{16}2,1,3,8,4,7,5,6,8,7,1,6,2,5,
{24}3,2,1,8,7,64,3,2,1,8,7,6,54,3,2,1,8,7,6,5,43,2,1,87,E6/E7/E3/E2/Cf,,,,,,
{32}1hb[8:1]/2b,3,4,5,,,,,,,,,
8hb[8:1]/1b,2,3,4-8[190#8:1],,,,,,,,,
4b/5b,,,,,,,,1b/8bx,,,,,,,,
2,3,4,5,7,6,5x,4x,
{16}2,3,2,3,2,,,,
{32}1hb[8:1]/7b,6,5,4,,,,,,,,,
8hb[8:1]/2b,3,4,5,,,,,,,,,
{8}3-8b[8:1]/7-4b[8:1],,3b/7b,,1/5,3h[32:7]/7h[32:7],,
{32}2/6,1/5,8/4,7v5<3[8:26]/3v1>7[8:26],
{1},,,,
{12}E2,B2,B3,E6,B6,B7,1,2,3,5,6,7,
E3,E4,E5,E7,E8,E1,2,3,4,6,7,8,
2,3,4,8,7,6,1,2,3,7,6,5,
{16}E1,E2,E3,E4,E5,E6,E7,E8,D1,D2,D3,D4,D5,D6,D7,D8,D1/C,
E
