&title=SUPER☆HARAGURO☆POP
&artist=Zekk
&first=0.02
&des=老呉
&lv_5=13
&inote_5=(160)
{1},
{16}5h[8:7],,,,4,,,3,,,2,,2,,3,,
{16}4h[4:3],,,,5,,,5,,,6,,6,,5,,
{16}5h[8:7],,,,4,,,3,,,2,,2,,1,,
{16}1h[4:3],,,,3,,,2,,,8,,8,,7b,,
{16}26,,,,5,,,4,3,,5,,5,,6,,
{16}73,,,,4,,,5,6,,4,,4,,3,,
{16}26,,,,5,,,4,1,,3,,4,,5,,
{8}6/8pp4[2:1],,7<4[4:1],,,,,,
{8}6,5,3,4,5,6,4,3,
{8}2,1,7,8,3,4,5,6,
{8}7-4[8:1],,4,2,5,6,3,4,
{8}7,6,5,4,3,2,1,7b,
{8}3/8-4[8:1],3,2,1,8>4[4:1]/5,8,6,7,
{8}8-4[8:1],8,1-3[8:1],1,5-7[8:1],5,4-1[8:1],4,
{8}8-4[8:1],7-5[8:1],8,7,3,26,37,4/8w4[4:1],
{8},,,,4>1[8:1]/5<8[8:1],,4b/5b,,
{16}27,,2,,38,,3,,2-6[8:1],1,,1,2,,8,,
{16}5<8[8:1],,5,,4,,3,,7-4[8:1],1,,1,7,,2,,
{8}3h[8:1],2h[8:1],1h[8:1],8h[8:1],6h[8:1],7h[8:1],8h[8:1],1,
{8}28,3,1>8[8:3]/7,6,2h[8:3],,,,
{8}34,3,56,6,35,2,46,7,
{8}12,3,78,6,15,2,48,7,
{12}35,3,3,47,7,7,16,1,1,26,26,26,
{8}2V47[16:5]/6V83[16:5],,,,,,{16}15,48,37,26,
{16}1b>4[8:1]/5b,,,6,1b-5[8:1]*-7[12:1],,7,,1b>4[8:1],,,6,1b/6h[64:1],,7h[64:1],,
{16}8b<5[8:1]/4b,,,3,8b-4[8:1]*-2[12:1],,2,,8b<5[8:1],,,3,8b/3h[64:1],,2h[64:1],,
{16}1b-6[8:1]/4b,,,5,1b>4[8:1]*-5[8:1],,7,,1b-6[8:1],,,6,1b/6h[64:1],,7h[64:1],,
{16}8,8,,,,,,,{12}7,7,7,{32}2b,1,8,7,6,5,4,3,
{16}2b/6b-1[8:1],,,4,6,,3h[64:1],8h[64:1],2h[64:1],7h[64:1],1h[64:1],6h[64:1],{24}8,7,6,5,4,3,
{16}2b/7b-4[8:1],,,1,7,,2h[64:1],5h[64:1],3h[64:1],6h[64:1],4h[64:1],7h[64:1],{24}5,6,7,8,1,2,
{16}3b/4b-8[8:1],,,6,4,,7h[64:1],1h[64:1],6h[64:1],2h[64:1],5h[64:1],3h[64:1],{24}4-8[8:1],3,2,1,8,7,
{8}6/4b-7[8:1],5,2/4b-1[8:1],3,6/4bw8[8:1],5,4b,,
{32}7-4[8:1]/8,,,,1,,,,2b-5[8:1]*-7[8:1]/7,3,4,,,,,,2,,,,,,,,4b-7[8:1]*-8[8:1]/6,3,2,,5,,,,
{32}4,,,,,,,,1b-5[8:1]/6b<6[8:3],2,3,,6,,,,16,,,,,,,,,,,,,,,,
{32}2-5[8:1]/1,,,,8,,,,7b-4[8:1]*-2[8:1]/2,6,5,,,,,,7,,,,,,,,5bV38[4:1]/3,,,,6b,,,,
{32},,,,6,,6,,6<4[16:5],,,,1h[8:3],,,,,,,,,,,,,,,,,,,,
{32}7-4[8:1]/8,,,,1,,,,2b-5[8:1]/7-1[8:1],3,4,,,,,,27,,,,,,,,8b-3[8:1]*-5[8:1]/4,7,6,,2,,,,
{32}8,,,,,,,,2b>8[8:3]/6b>8[8:3],17,8,,,,,,26,,,,,,,,,,,,,,,,
{32}1/7-3[8:1],,,,2,,,,3b>5[8:3]/7,4,5,,,,,,4h[4:1]/3,,,,,,,,,,,,,,,,
{8}3h[4:1]/7h[4:1],,,,26,,,,
{8}4qq8[2:3]/5,,5,,6,6,,7,,7,,,6,,5,,
{8}5pp8[1:1],1,1,,2,2,2,2,,3,4z8[4:1],3,,,,1b,
{8}27,3,4,4,5,6,4,3,
{8}5,6,6,5,4,3,2,1,
{8}7,6,2,3,5,4,3s7[16:7],4,
{8}5z1[80#8:1]*s1[80#8:1],,,,,,,,
{8}2-5[8:1],2,8,8,7-4[8:1],7,1,1,
{8}2>5[4:1],2,5p1[16:3],6,7,,8<5[8:1],1,
{8}2h[4:1],,4>1[8:1],5,6,7,8,1,
{8}8V27[16:3]*V61[16:3],,8p5[16:5]*q3[16:5],,,,,,
{8}2-5[8:1],2,6-1[8:1],6,3-8[8:1],3,7-4[8:1],7,
{8}2-6[8:1],2,1-5[8:1],1,8-4[8:1],8,7-3[8:1],7,
{16}3,2,1,8,5,6,7,8,2,3,4,5,8,7,6,5,
{8}4V61[4:1]/8V25[4:1],,48,,,,{32}3b,2,1,8,7,6,5,4,
{8}3-8[8:1]/7-4[8:1],,3b<8[4:1]/7b,,13,,2-6[8:1],3,
{8}2/8<5[8:1],7,4>1[8:1]*-8[8:1]/8,3,4,,7<4[8:1]*>2[8:1],68,
{8}7q3[8:1],,3v8[8:1]/7,4,3/5<8[12:1],{24}1,2,3,4,,,3,,,
{8}1<6[8:1]/2h[8:1],,4h[8:1],,8h[8:1]/1-5[8:1],,6h[8:1],,
{8}2bq6[8:1]/8b<5[8:1],,2/8-4[8:1],,5<8[8:1]/8,,3/5>2[8:1]*-1[8:1],4,
{8}5,,8-4[8:1],7,3-8[8:1]/8,,3/5-1[8:1],6,
{8}7-1[8:1]*-5[8:1]/5,,7-3[12:1],,2>5[8:1]/7,{24}1,8,7,{8}6,7,
{8}8-4[8:1]/6,,81,2,{32}6,7,8,1,2,3,4,5,6,7,8,1,2,3,4,5,
{8}6b-1[8:1]/2b-5[8:1],,6b>1[4:1]/2b,,86,,7-3[8:1],6,
{8}7/1>4[8:1],2,5<8[8:1]*-1[8:1]/1,6,5,,2>5[8:1]*<7[8:1],31,
{8}2p6[8:1],,6v1[8:1]/2,5,6/4>1[12:1],{24}8,7,6,5,,,6,,,
{8}8>3[8:1]/7h[8:1],,5h[8:1],,1h[8:1]/8-4[8:1],,3h[8:1],,
{8}7bp3[8:1]/1b>4[8:1],,7/1-5[8:1],,4>1[8:1]/1,,6/4<7[8:1]*-8[8:1],5,
{8}4,,1-5[8:1],2,6-1[8:1]/1,,6/4<4[4:3],3,
{2}4/7h[4:3],,
{32}2b/8b,7,6,5,4,3,2,1,3bw7[8:1]/8b,4,5,6,7,8,1,2,3b,,,,,,,,,,,,,,,,
{16}3h[1:1],,,,4,,,,5,,,6,,,7,,
{16}6h[1:1],,,,5,,,,4,,,3,,,2,,
{16}1h[1:1],,,,5,,,,6,,,7,,,8,,
{16}8h[1:1],,,,6,,,,5,,,4,,,3,,
{16}2h[1:1],,,,4,,,,5,,,6,,,7,,
{16}8h[2:1],,,3,,,4,,5h[2:1],,,7,,,6,,
{16}6h[1:1],,,,4,,,,3,,,2,,,1,,
{16}1h[2:1],,,4,,,3,,2h[16:3],,,3h[16:3],,,4,,
{1},,,,
E
