&title=Last Shot
&artist=VALORANT; templuv; 347aidan
&first=0.055
&des=瓦学弟
&lv_5=14
&inote_5=(144)
{4}
,,,,
{8}
,,,,,,,,
1x>3<4<5<6<8[4:25],,,,,,,,
,,,,,,,,
C,,,,,,,,
,,,,,,,,
C/B5/B4,,,,,,,,
,,,,,,,,
C/B5/B4/B3/B6,,,,,,,,
34,,67,,1/8-5-2[4:1],,,,
3hx[4:8],,,,6>3p8[4:4],,,,
,,,,,,,,
,,,,8hx[4:4],,6<3V52[8:7],,
,,,,,,7-4[8:1],,
,,1,5,5h[8:1],,4>8[4:3]/6h[8:1],,
7h[8:1],,7h[8:1],,6h[8:1],,6h[8:1],,
5,5,24,3,
{16}5,4,6,,37,,,,
{8}
7-4[4:1],,4-1b[4:1],,2,,8>3[8:1],,
{16}
8b/6-1[8:1],,,,46,,2,,3,5,3,,71,,1,,
6v8[6:1],,5,,3V52[4:1],,3,,7,,7,,1<6[8:1],,,,
1/3-8[8:1],,,,53,,7,,6,4,6,,28,,8,,
1v3[6:1],,2,,6V48[4:1],,6,,2,,2,,1>4[8:1],,,,
1/7q3[8:1],,,,57,,5,,4,6,4,,73,,3,,
8v6[6:1],,7,,3V52[4:1],,3,,8,,8,,1<6[8:1],,,,
1/3v8[8:1],,,,53,,7,,6,4,6,,71,,7,,
2-5[8:1],,8p4p7[4:1],,2,,8,,,,,,1>4[8:1]/8<5[8:1],,,,
,,,,,,,,C,,,,,,,,
,,,,,,,,6h[1:1],,,,,,,,
,,,,,,,,2h[1:1],,,,,,,,
,,,,,,,,4-1[4:1],,,,,,,,
,,,,,,,,7/3h[2:1],,,,,,,,
,,,,,,,,5h[2:1]/4,,,,,,,,
,,,,,,,,1h[2:1]/7h[2:1],,,,,,,,
,,,,,,,,4/C,,,,,,,,
7z3[8:3]/5,,75,,,,,,1,,,,,,,,
2-7[4:1],,,,,,,,5,,,,,,,,
6v5-3[8:3]/4,,64,,,,,,8,,,,,,,,
3s7[8:3],,,,,,,,5,,,,,,,,
18,,18,,7-3[8:1],,,,75,,,,2,,,,
4,,4,,1-5[8:1],,,,17,,,,,,,,
56,,56,,7-3[8:1],,,,71,,,,4,,,,
2,,2,,4-8[8:1],,,,4/6<3[4:1],,,,,,,,
4h[1:2],,,,,,,,E2,,,,E3,,,,
E4,,,,E5,,,,E6,,,,E7,,,,
E8,,,,E1,,,,E2/C,,,,E3/C,,,,
E4/C,,,,E5/C,,,,E6/C,,,,E7/C,,,,
E8/C,,,,E1/5<4[4:5],,,,E2,,,,E3,,,,
E4,,,,E5,,,,E6,,,,E7,,,,
8,,8,,12,,3,,5,4,6,,37,,,,
7-4b[4:1],,,,4-1[4:1],,,,2,,,,8>3[8:1],,,,
8b/6-1[8:1],,,,46,,2,,3,5,3,,7/1-5[8:1],,2,,
1/6-3[8:1],,7,,6/2v7[8:1],,1,,28,,,,1<6[8:1],,2,,
1/3-8[8:1],,,,53,,7,,6,4,6,,2/8V61[4:1],,7,,
84,,4,,2V46[4:1],,3,,26,,7,,8<5[8:1],,,,
8/2p6[8:1],,,,42,,4,,5,3,5,,1/7v4[8:1],,6,,
7/2>5[8:1],,1,,2/8-4[8:1],,7,,18,,,,1<6[8:1],,2,,
1/3v8[8:1],,,,53,,7,,6,4,6,,71,,8,,
2-5[8:1],,8-4[8:1],,2>8[4:1],,8,,2,,,,1x<2b[4:6],,,,
,,,,,,,,,,,,,,,,
,,,,,,,,,,,,1h[8:1]/8h[8:1],,,,
64,,4,,12,,7,8,7,8,6,,34,,2,,
46,,18,,37,,1,6,4,5,3,,18,,8,,
64,,4,,12,,7,8,7,8,6,,35,,78,,
2,1,2,1,3,,6,5,,3,4,,78,,12,,
6,5,7,,34,,1,6,5,8,2,,34,,7,,
61,,45,,8,1,7,2,6,5,7,,8-6v5-3b[4:7]/3,,,,
1h[8:1],,,,1h[8:1],,,,1h[8:1],,,,1h[8:1],,,,
2h[8:1],,,,2h[8:1],,,,2h[8:1],,,,2h[8:1],,,,
{64}5bx/4bx,E6/E4,6bx/3bx,E7/E3,7bx/2bx,E8/E2,8bx/1bx,E1f,
{8},,,,,2>5b[8:1]/7-3b[8:1],,
2bx/7bx`Cf,,,,,,,,
{16}2b/6,,4,,38,,6,2,4,3,7,,1-6b[8:1]/8,,2,,
1b/4<7b[8:1],,3,,4b/2-5b[16:1],,,2x/7x-1b[8:1],,6,6,,4x,,4,,
7b,3,5,,61,,3,7,5,6,2,,8-3[8:1]/1,,7,,
8b/5>2[8:1],,6,,5b/7-4[16:1],,,7x/2x-8[8:1],,3,3,,5x,,5,,
2b/7,,54,,38,,1,6,3,,75,,1-6b[8:1]/8,,2,,
1b/4-8[8:1],,3,,1-6b[8:1]/4b,,2,,1x/4-8[8:1],,3,,1/4x,,2,,
7b,3,5,,61,,34,,57,,12,,8q4b[8:1],1,7,,
8b/5v8[8:1],,6,,2-7b[8:1]/5b,2,,,A2f/6bxh,,,,8x,,,,
{8}1qq6[4:5]/3x,3,3,3,3,4x,4,4,
5x,5,5,5,5,4x,35,2,
1pp4[4:5]/7x,7,7,7,7,6x,6,6,
5x,5,5,5,5,6x,73,8,
1-6[8:1]/2x,2,2,2,5-1[8:1]/2,3x,3,3,
8V26[4:1]/4x,4,4,4,4,3x,27,1,
8q1[4:2]/5,5,5,5,5,6x,6,6,
7bx/8bx,1bx/2bx,3bx/4bx,5bx/6bx,7bx/8bxw4b[8:1],,8bx<6>5>4>3>1[4:7]`8?<6b[4:2],,
,,,,,,,,
,,,,,,,,
B7h[1:2],,,,B2h[2:3],,,,
B6h[1:1],,,,B3h[2:1],,,,
Ch[2:3],,,,,,,,
,,,,,,8x>3[8:1]/2,,
{16}
8b/6-1[8:1],,7,,4/6b,,2,2,5,4,6,,7<4[8:1]/2,,3,,
7>2[8:1],,1,,7V58[4:1],,5,5,7,,4,,1x<6[8:1],,2,,
1b/3-8[8:1],,4,,5/3b,,7,7,4,5,3,,2>5[8:1]/7,,6,,
2<7[8:1],,8,,2pp2[4:1],,4,4,2,,6,,1x>4[8:1],,8,,
1b/7q3[8:1],,6,,5/7b,,5,5,6,4,6,,8<5[8:1]/3,,4,,
8>3[8:1]/2,,1,,8<5[8:1]/6,,7,,84,,2,,1<6[8:1]/7,,2,,
1b/3v8[8:1],,4,,5/3b,,7,7,2,5,4,,8-4b[8:1]/6,,1,,
8/3>2<1<8<7<6[4:1],,,,6>5>4>3>2<1[4:1],,6,,1<8<7<6>5[6:1],,,,5,,,,
{32}4bp8[8:1]*v7[8:1],3,2,1,8,7,6,5,{16}4bx,,,,26,,34,,7V51[4:1]/1,,6,,
27,,4,,3-8[8:1],,8V25[4:1],,3,,4,,6h[8:1],,,,
{32}6b-1[8:1]*v3[8:1],7,8,1,2,3,4,5,{16}6bx,,,,84,,56,,3<5-1[4:1]/1,,2,,
53,,6,,7-3[8:1],,3>2v5[4:1],,7,,4,,1h[8:1],,,,
{32}8b-5[8:1]*v3[8:1],7,6,5,4,3,2,1,{16}8bx,,,,24,,18,,6V84[4:1]/5,,7,,
46,,3,,2-6[8:1],,6-3-8[4:1],,2,,5,,7h[8:1],,,,
{32}7b-4b[8:1]/3bv8b[8:1],6,5,4,3,2,1,8,{16}3bx/7b`Cf,,,,2-5[12:1]/7-4[12:1],,36,,2b/7b,,,,
{32}8/1b,2,3,4,5,6,7,8,1/6b,5,4,3,2,1,8,7,6/1b,2,3,4,5,6,7,8,1,2,3,4,5,6,7,8,
{8}1b/4b-7b[3.95833##0.41667]*-1b[3.95833##0.41667],,,,,,,,
,,,,,,,,
,,,,,,,,
,,,,,,,,
