&title=Revelation
&artist=Xeudo Code vs LucaProject vs Neptune XI
&first=0.06
&des=墓
&lv_5=14+
&des_5=墓
&inote_5=
(180){4},,,,{32}1bxh,
8/2p8b[0.2917##2.3333],7h/3h,4/6p4[0.2083##2.3333],{8}5bxh,{1},,{4},,,{2}8h[4:3]/1h[4:1],
2h[4:1],
{32}8bxh,7/1,2/6,3/5<3[0.2083##1.8333],{8}4bh,,,,,,,4h[4:1],
,,4h[4:1],,,{4}4-8[8:1],
{2}4<1[2:1],2h[4:1],
{4}3h[4:1],{8}4,7/5,6,5,{4}3/4,
{8}1b/8b,3,3,7/5,6,6,{16}3,4,3,4,
{8}3,2,2,6/5,7,7,{16}2,1,2,1,
{8}3b,2,3,4,2,3,4,5,
3b/E6,4,5,6,3b/B5,4,5,6,
{24}8/2b,3x,4x,5x/7,,,{8}6,5,{24}1/7b,6x,5x,4x/2,,,{8}3,4,
6/5,{16}7x,8x,{8}1x/4bxh[16:3],{16}2x,1x,{8}8x/4bxh[16:3],{16}8x,7x,6,5,{8}4/3,
{1}3h[1:1]/4v6-2v8b[4:3],
A8f,
{64}6x,3x,5x,4x,,,,,,,,,,,,,7x/3,B7,,,,,,,,,,,{16}4,{8}5,4,{64}7x/3,B7,,,,,,,,,,,{16}5,
{8}4,4,{64}7x/3,B7,,,,,,,,,,,{16}4,{8}5,{16}2,1,2,1,{8}2,
{64}5x,4x,6x,3x,,,,,,,,,,,,,2x/6,B2,,,,,,,,,,,{16}5,{8}4,4,6h[16:1]/5h[16:1],5h[16:1]/6h[16:1],
4/5,{16}3,4,{64}2x,B2,,,,,,,{8}5b,{4}8w4[8:1],8,
{64},,,,,,,,,,,,,,,,1x,8x,2x,7x,,,,,,,,,{16}5,{8}4,4,{64}8x/3,7x,,,,,,,,,,,{16}4,
{8}5,5,{64}6/1x,2x,,,,,,,,,,,{16}5,{8}4,{16}7,5,7,5,{8}7,
4/6-8[8:1],3/5,6/4,{16}1,1,,7,{8}7/5,6/4,{16}3,4,
{8}2,{16}6,5,{8}7,{16}1,1,{8}1,{16}8,8,{4}8h[4:1],
{64},7x/1x,,,,,,,,,,,,,,,{32}2x,B2,,,,,{16}5,{8}4,5,{32}7x/5,B7,,,,,{16}5,
{8}4,5,{32}5/3x,B3,,,,,{16}5,{8}4,5,{32}5/6x,E7,{64},,,,,,,,,,,,6x,
5x,4x,3x,,,,,,,,,,,,,8x/1x,E8/E2,,,,,,,,,,,{16}5,{8}4,4,{16}6/3,,,4,
{8}5,5/4,{16}2,8,1,7,8,6,8,5,{4}1b,
{64}3x,4x,5x,6x,,,,,,,,,,,,,{16}2/7,,,4,{8}5,4,7/2,6/3,
{16}4,5,3,6,2,7,1,8,E2,E8,B4,B5,{4}1b,
{8}6/3,3/6,7/4,{16}3,3/5,,6,{8}4/6,8/2,6/5,
{32}4>4b[4:1]*>8[8:1],,,,,,,,,,,,,,,,,E4,E3,E2,E1,E8,E7,E6,{4}8bx/E5,
{8}6h[8:1],5h[8:1],C,2h[8:1],4h[8:1],3h[8:1],{16}8,3,7,2,
{8}6h[8:1],1h[8:1],B3,2h[8:1],5h[8:1],3h[8:1],{64}8x,7x,,,,,,,,,,,,,,,{8}3h[8:1],
4h[8:1],1h[8:1],7h[8:1],5h[8:1],6h[8:1],{16}1,6,2,7,
{8}3,8h[16:1],5h[16:1],7h[16:1],4h[16:1],6h[16:1],{64}1xh[64:1],2xh[64:1],,,,,,,,,,,,,,,{8}8<5[8:1],
5h[8:1],8,1>4[8:1],4h[8:1],1,5h[16:1],5h[16:1],
5-2[8:1],6,7,8-5[8:1],1,2,3h[16:1],3,
5<8[8:1],8h[16:1],5,4>1[8:1],1h[16:1],4,8h[16:1],8h[16:1],
{16}8,7,6,4,7,6,5,3,6,5,4,2,{4}4bx,
2/8,{16}1,1,1,1,1,1,1,1,1,1,1,1,
1h[32:1],1h[32:1],1h[32:1],1h[32:1],1h[32:1],1h[32:1],1h[32:1],1h[32:1],{4}1b,{16}4-2-5-1[8:3],5,4,5,
{8}4b,,,8-4<5-2[4:1],7h[16:1],7h[16:1],7h[16:1],6,
5b,{16}2,1,{8}2>8[4:1],B4/B5/E5,{4}2b,1-7-2-6b[8:3],
{2}1b/3x,{8}1,2h[16:1],2h[16:1],2/3,
5/4,{16}7,8,{8}7-4-6-1[4:1],B3/B4/E4,{4}7b,{8}3h[16:1],3h[16:1],
{2}8bv6[8:1]/1p5b[8:1],{12}4,4,5,3,3,4,
{6}B2,{24}6,5,{8}6,{16}4,5,{48},,,,{12}2,2,1,3,3,
{2}8h[1:1],5,
{4}3h[4:1],{8}5,3,{4}8,{16}6<4b[8:3],4,7,5,
{2}6b,{4}1-4-8[4:1],{8}7h[16:1],7h[16:1],
7,{16}6,5,,3,{8}4,{16}7,8,,2,{8}1<7-2-5[8:3],6,
{2}1b,{8}6,6,{16}3,4,,4,
{8}3h[16:1],5/3h[16:1],6/3,{16}4,5,,7,{8}8,8,7/1,
4/3-8[8:1],4/5,6h[16:1],6,7b-4[8:1],8h[16:1],8,1h[16:1],
1,{24}2,3,4,{8}6/5,7,1h[16:1]/8h[16:1],8h[16:1]/1h[16:1],4/2-5[8:1],3,
6,7h[16:1],7,5/6,{4}1h[4:1],{16}7,8,6,1,
{8}8h[8:1],{32}1h,2,3,4,{8}5/6,6,{2}4h[2:1]/5h[2:1],
{4},6/B2,{16}3,4,{8}3,{16}5/B2,,,3,
{8}4,4,5x/B2,3,{16}3,4,3,4,{4}B2/E2/B1,
5/4h[16:3],{8}E8/B8/B7,4,{16}4,5,{8}4,{4}3x/E8/B8/B7,
{8}4/5,5/4,3x/E8/B8/B7,{16}3x,6x,,6x,,3,{4}B7/B8/E8,
{8}1h[4:1],8,7,2h[4:1],7,6,{16}4/3,5,6,7,
{8}4h[4:1],8,8,5h[4:1],1,1,{16}5/8,7,6,5,
{8}3/4h[4:1],2,2,1h[4:1],4,4,{16}5x,7x,1x,3x,
{1}8xh[1:1],
1V35V71-5V73b[4:11],
,,8h[4:3],
{8}3,4,5,6h[8:3],,,,,2,
3,4,5,{4}6h[4:1],C,
E1,E8/E2,E7/E3,E6/E4,
{2}5h[2:1]/4h[4:1],3,
{4}8h[4:1],C,{8}4,5,{4}4,
7h[4:1],C,{16}3/4,,,4/3,,,{8}4/3,
{2}6h[4:1],5h[4:1]/1h[4:1],
{1}8h[4:3]/4h[4:3],
6h[4:15]/2bh[1:2],
,,{4},,,{32}2,
3,4,5,6,7,8,1,
{8}2/6,4/5,4/3,{16}7-4[8:1],8,,8,{8}7,1,{16}3,4,
{8}2,3/4,5/4,{16}2-5[8:1],1,,1,{8}2,8,{16}7,5,
{8}6,{16}1,6,2,5,3,4,2,1,3,7,{8}1,8/1,
{16}7,8,6,1,{8}5,5/1,3h[8:1],{16}5,3h[8:1],,8,{8}2b/7,
{16}3,7,4,6,3,5,2,8,4,6,3,5,1,8,2,7,
1b,6,2,5,3b,6,4,8,2b,7,4b,5,1b,6,3,4,
2bh[8:1],,,6h[8:1]/4h[8:1],,,{8}1/7,{4}8w4b[8:1],8,
{8}2/8,2,7/1,7,{64}E7/B6,B5,{32}E5,{64},,,,E1/B1,B2,{32}E3,{64},,,,7x/6x,5x,{32}4x,{64},,,,8x/1x,2x,{32}3x,,,{4}7h[8:1],
1/7h[8:1],{8}7h[8:1],8,5/7h[8:1],5,
{4}4/6h[8:1],{8}6h[8:1],4,{4}5/6h[8:1],{16}3,4,{8}3,
3/4,4/5,5/6,5/4,7/2,7,1/6,1,
{4}8/1h[8:1],{16}1,6,1,6,{4}1bh[8:1],{8}1h[8:1],8b,
1<7[8:1],7<5[8:1],5>3[8:1],3>1[8:1],8,7,{4}6b,
{8}5<7[8:1],7>1[8:1],1<5[4:1],2,3<5[8:1],2,{4}3b,
{16}8,4,8,4,7,3,7,3,6,2,6,2,5,1,5,1,
{24}5,6,7,8,2,3,4,6,7,8,2,3,{16}4w8[0.3333##0.1667],,,,{4}4,
{1}6/2,
{16}1,8,2,7,3,6,4,5,3,4,2,5,1,6,8,7,
1h[32:1],1h[32:1],1h[32:1],1h[32:1],1h[32:1],1h[32:1],1h[32:1],1h[32:1],1h[32:1],1h[32:1],1h[32:1],1h[32:1],1h[32:1],1h[32:1],1h[32:1],1h[32:1],
{32}1,2,3,4,5,6,7,8,1,2,3,4,5,6,7,8,1,2,3,4,5,6,7,8,{4}5/1b-4-2-6[8:3],
{16}1,,,,,,,5,{8}5-8-4[4:1],1h[16:1],1h[16:1],1h[16:1],
2,{16}3,3/5,,6,{8}6/4,{4}2b,{16}7-2-5-1[8:3],8,7,8,
{2}7b,{8}3h[16:1],3h[16:1],6h[16:1]/4h[16:1],6h[16:1]/4h[16:1],
{16}7,5,7,5,{8}8bh[16:1],8h[16:1],{4}8b/B3/B4/E4,{16}2V84v7[8:3],1,2,1,
2b,,,,,,,8,{8}8-4pp6[4:1],1h[16:1],1h[16:1],1,
{16}2,2,,3,{8}5/3-5[8:1]*>8[8:1],4,{4}3,C,
1h[4:3],{8}3,3,,6,{4}6,
{8}8bh[8:3],,,5,{4}7/1,C,
4h[48:1]/3h[48:1],5h[48:1]/6h[48:1],{12}8,8,5,5,,6h[48:1]/7h[48:1],
,4h[48:1]/3h[48:1],,{4}5-8[8:1]*-3[8:1],5h[48:1],C,
{12}3h[48:1]/4h[48:1],2,2,6,5,7,{16}1-3[8:1],,,7-5[8:1],1,,,7,
{4}8h[12:5],{12}4,4,4,{4}8bh[48:1]/4<7[8:1]*V68[8:1],4,
2h[4:1],{16}8,,,7,{8}1/7-1-5[4:1],2h[16:1],2h[16:1],2,
{16}3,4,,6,{8}5-3-8-4b[4:1],7,{4}5,6,
8h[4:1],{8}5,6,1h[8:3],3,3,3,
6<1[8:1],4,,3,4h[4:1],6,{4}5w1b[8:1],
,,{2}2b/7b,
E
