&title=ひめごと*クライシスターズ
&artist=高野麻里佳; 石原夏織; 金元寿子; 津田美波
&first=0
&des=reflectMTF
&lv_4=11
&lv_5=12+
&inote_4=(183)
{1},
{4}45,1,2,3,
{8}6,,5pp6[4:7]/4qq3[4:7],,,,,,
{4},,,,
{4},,1b,,
{4},3b,,6b,
{8},1b,,8b,,4b,5bw1[8:1],,
{32},,,,,,,,{16}3-8[8:1],,,,7-4[8:1],,,,2-5[8:1],,,,
{16}6-1[8:1],,,,4^1[8:1],,,,5pp7[8:1],,,,,,1,,
1,,,,{16}6-1[8:1],,,,2-5[8:1],,,,7-4[8:1],,,,
{16}3-8[8:1],,,,5^8[8:1],,,,4qq2[8:1],,,,,,8,,
8,,,,2h[4:1]/5h[4:1],,,,,,3h[4:1]/4h[4:1],,,,,,
{16}5h[4:1]/6h[16:4],,,,,,7V58[8:3]/4V25[8:3],,,,,,,,,,
{16},,,,4b/8b,,,7b/3b,,,6b/2b,,,5b/1b,,,
{16}4bqq1[4:3]/8bqq5[4:3],,,,,,,,,,,,,,,,
{4},35,3,64,
{8}6,,2p6[16:3]*^5[16:3]/7,,,,,2h[8:1]/8h[8:1],
{8},7h[8:1]/1h[8:1],,,46,,37,,
{8}28,,1-5[16:3]*p4[16:3],,,,,2h[8:1]/8h[8:1],
{8},7h[8:1]/1h[8:1],,,5-1[8:1],,2,,
{8}3h[4:1],,5p1[16:3]*q1[16:3],,,,,2h[8:1]/6h[8:1],
{8},7h[8:1]/3h[8:1],,,5-8[8:1],,4-1[8:1],,
{8},6b,,,4b,,7b,2h[8:1]/6h[8:1],
{8},7h[8:1]/3h[8:1],
{8},,6h[4:1],,4h[4:1],,
{16}8h[4:1],,,,2h[4:1],,,,7,,,,45,,,,
{8}36,,72,,4p2[16:8],,7,,
{16}6,,,,5q7[16:8],,,,2,,,,3,,,,
{16}4,,,,,,,,3h[4:1],,,,5h[4:1],,,,
{16}1h[4:1],,,,7h[4:1],,,,2,,,,54,,,,
{8}63,,27,,5h[16:4],,1,,
{16}4h[16:4],,,,8v3[16:3]*v5[16:3],,,,,,,,,,2,,
{4}2,1b,2b,3b,
{4}45,78,12,45,
{4}36,8-5[8:1],4-1[8:1],8-5[8:1],
{8}4>5[4:3]*qq5[4:3],,,,,,,,
{8},,1,8,2,7,3,6,
{8}4,5,1h[4:1],,5h[4:1],,3h[4:1],,
{16}7h[4:1],,,,1-4[8:1],,,,6-1[8:1],,,,3-6[8:1],,,,
{8}8-3[8:1],,5-8[8:1],,2-5[8:1],,{16}7,,,,
{16}6/3,,,,1b,,,,5,,,,1h[4:1],,,,
{16},,7/2b,,,,35,,,,46,,,,8,,
{16}2,,7,,3bw7[4:1],,,,,,,,,,,,
{16},,{32}1b,28,73,64,5w1[8:1],,,,,,,,,,,,,,,,,,,,45,,,,
45,,,,45,,,,3/6^1[8:1],,,,,,,,3h[4:1],,,,,,,,6^1[8:1],,,,2,,,,
2,,,,3-8[8:1],,,,,,,,,,,,7h[4:1],,,,,,,,1-4[8:1],,,,6,,,,
6,,,,,,,,3h[4:1]/5,,,,,,,,7h[4:1],,,,,,,,1h[4:1],,,,,,,,
6>7[8:4],,,,{48}2h[8:5],,,,,,,,,,,,,,,,,,,,,,,,,,,,,,,,,,,,3b/5b,,,,,,
{32}3b/5b,,,,,,,,6,,,,57,,,,3,,,,4/2h[4:1],,,,,,,,8-5[8:1],,,,
8,,,,1-4[8:1],,,,1,,,,6<3[8:3],,,,6,,,,3,,,,,,,,,,,,
,,,,,,,,6-8[8:1]/4-8[8:1],,,,,,,,,,,,,,,,3-1[8:1]/5-1[8:1],,,,,,,,
,,,,,,,,3qq5[3:1]/6pp4[3:1],,,,,,,,,,,,,,,,,,,,,,,,
17,,,,,,,,6/3^8[8:1],,,,,,,,6h[4:1],,,,,,,,3^8[8:1],,,,7,,,,
7,,,,6-1[8:1],,,,,,,,,,,,2h[4:1],,,,,,,,8-5[8:1],,,,3,,,,
3,,,,,,,,6h[4:1]/4,,,,,,,,2h[4:1],,,,,,,,8h[4:1],,,,,,,,
3<2[8:4],,,,{48}7h[8:5],,,,,,,,,,,,,,,,,,,,,,,,,,,,,,,,,,,,6b/4b,,,,,,
{32}6b/4b,,,,,,,,3,,,,42,,,,6,,,,5/7h[4:1],,,,,,,,1-4[8:1],,,,
1,,,,8-5[8:1],,,,8,,,,3q6[8:3],,,,3,,,,6,,,,,,,,,,,,
,,,,,,,,4-2[8:1]/5-1[8:1],,,,,,,,,,,,,,,,5-7[8:1]/4-8[8:1],,,,,,,,,,,,,,,,6h[4:1]/1h[4:1],,,,,,,,,,,,,,,,3h[4:1]/8h[4:1],,,,,,,,
,,,,,,,,4>5[1:1]/5<4[1:1],,,,,,,,,,,,,,,,,,,,,,,,
,,,,,,,,,,,,,,,,,,,,,,,,,,,,7,,,,
7,,,,,,,,4,,,,5,,,,3,,,,6^1[4:1],,,,,,,,1^4[4:1],,,,
,,,,4,,,,,,,,,,,,1b/2b,,,,,,,,5b/4b,,,,,,,,
7b/8b,,,,,,,,6,,,,4,,,,7,,,,3h[4:1],,,,,,,,6,,,,
4,,,,6,,,,,,,,3,,,,5,,,,3,,,,,,,,1,,,,
{4}1,2b,,7b,
{8},1b,,8b,,4b,5b,4b,
{8},1b/6b,,3b/8b,,4b/5b,4b/5bw1[8:1],,
&inote_5=(183)
{1},
{4}4/6h[16:3],1,2,3,
{8}6,,5h[16:7]/4,,,,3v5[16:12]*qq7[16:22],,
{4},,,,
{4},,5w1[4:1],,
{4},2b/1b,,8b/7b,
{8},4b/2b,,5b/7b,,4b/5b,4b-8[8:1]/5b-1[8:1],,
{32}45,,,,,,,,{16}27,,1,8,2,7,3,6,4h[8:1],,7,8,
{16}6,1,5,2,4h[8:1],,3,4,2,5,1,6,8,,8h[32:1]/7h[32:1],,
8h[32:1]/7h[32:1],,,,17,,8,1,7,2,6,3,5h[8:1],,2,1,
{16}3,8,4,7,5h[8:1],,6,5,7,4,8,3,1,,1h[32:1]/2h[32:1],,
{16}1h[32:1]/2h[32:1],,,,2/5h[16:1],,3,4,3,4,3h[4:1],,,,8,,
{16}7/4h[16:1],,6,5,6,5,6h[4:1],,,,3,,35,,6,,
{16}6/4h[4:1],,,,8b-4[8:1],,,1b,,,2b-6[8:1],,,6b,,,
{16}7b,,8,,2,3,4,5,1,8,7,6,3,4,3,4,
{4}3,7,3qq3[16:5],5,
{8}4pp4[16:5],,3,,3,,5,2h[8:1],
{8}8h[8:1],2h[8:1],8,,2^4[4:1],,4v2[4:1],,
{8}2^4[4:1],,4v2[4:1],,5,,5,1h[8:1],
{8}6h[8:1],1h[8:1],6,,5-1[8:1],,2pp4[4:1],,
{8}2,,8,,3,,6,2h[8:1],
{8}6h[8:1],2h[8:1],6,,35,,1,28,
{8}37,4b/6b,,,4bqq1[2:1]/6bpp1[2:1],,4b/6b,,
{8},,,,6-3[8:1],,6,,
{16}2h[4:1],,,,7V51[4:1],,2,,7,,,,2,,,,
{8}45,,7,,4-1[16:2],,7,,
{16}5q7[16:7],,,,2,,,,3,,,,3,,8,,
{16}4,,7h[8:3],,,,,,1^4[8:1],,,,1,,,,
{16}7h[4:1],,,,2V48[4:1],,7,,2,,,,7,,,,
{8}45,,2,,5-8[16:2],,3,,
{16}1-4[16:2],,,,8,,,,6,5,6,5,6,,1h[32:1]/2h[32:1],,
{4}1h[32:1]/2h[32:1],1b-7[8:1],1/2b-6[8:1],2/3b-5[8:1],
{4}37,7-5[8:1],7/8-4[8:1],8/1-3[8:1],
{4}15,8^5[4:1],5p8[4:1],8^5[4:1],
{8}4,,3h[4:1],,4h[4:1],,5h[4:1],,
{8}6h[4:1],,1,8,2,7,3,6,
{8}4,5h[8:1],1-4[8:1],,7-4[8:1],,2,,
{16}3,5,3,5,3-8[8:1],,,,5-8[8:1],,,,3,,2,,
{8}7,6,4,5,3,6,{16}4,5,4,,
{16}6h[1:1]/3,,,,1b,,,,1,,,,1h[4:1],,,,
{16},,7h[1:1]/2b,,,,2,,,,2,,,,2,,
{16}2,,2,,3b/8h[8:6],,,,3,,,,2,,1,,
{16},,{32}1b,2,3,4,5w1[8:1],6,7,8,1,,,,5,,,,,,,,,,,,36,,,,
45,,,,36,,,,4/5,,,,4,,5,,3,,,,5-2[8:1],,4,,6-1[8:1],,,,5,,,,
6,,,,3,,,,7,,,,1,,8,,2,,,,8-3[8:1],,1,,7-4[8:1],,,,8,,,,
7,,,,,,,,7^4[8:1]/1,,,,6,,,,7/8^3[8:1],,,,1,,,,87,,,,,,,,
6,,,,{48}1,,2,,3,,4,,5,,6,,7,,8,,1,,2,,3,,4,,5-1[8:1],,6,,7,,8-4[8:1],,,,,,5b,,,,,,
{32}8b,,,,,,,,6,,4,,5-8[8:1],,,,3,,,,5/1-4[8:1],,,,2,,,,1,,,,
6pp5[3:1],,,,6,,,,2,,,,3,,,,4qq5[3:1],,,,4,,,,7,,,,,,,,
6,,,,,,,,6-8[12:1],,,,,,,,65,,,,,,,,3-1[12:1],,,,,,,,
34,,,,,,,,1b/8b,27,3qq5[3:1]/6pp4[3:1],45,,,,,,,,,,,,,,,,,,,,,
1,,8,,1,,8,,1-5[8:1],,,,2,,8,,1b,,,,7-4[8:1],,,,8-3[8:1],,,,7,,,,
8,,,,6,,,,2,,,,8,,1,,7,,,,1-6[8:1],,8,,2-5[8:1],,,,1,,,,
2,,,,,,,,2^5[8:1]/8,,,,3,,,,2/1^6[8:1],,,,8,,,,12,,,,,,,,
3,,,,{48}8,,7,,6,,5,,4,,3,,2,,1,,8,,7,,6,,5,,4-8[8:1],,3,,2,,1-5[8:1],,,,,,4b,,,,,,
{32}1b,,,,,,,,3,,5,,4-1[8:1],,,,6,,,,4/8-5[8:1],,,,7,,,,8,,,,
3qq4[3:1],,,,3,,,,7,,,,6,,,,5pp4[3:1],,,,5,,,,3,,,,,,,,
3,,,,,,,,6-8[12:1],,,,,,,,56,,,,,,,,3-1[12:1],,,,,,,,
34,,,,,,,,1^4[12:1]/5^8[12:1],,,,,,,,,,,,,,,,1p5[12:1]/5p1[12:1],,,,,,,,
,,,,,,,,1>1[1:1]/5h[4:5],,,,,,,,,,,,,,,,,,,,,,,,
,,,,,,,,,,,,,,,,,,,,,,,,,,,,8h[32:1]/7h[32:1],,,,
8h[32:1]/7h[32:1],,,,,,,,1,,,,6,,,,2,,,,5h[4:1],,,,,,,,3h[4:1],,,,
,,,,4h[4:1],,,,,,,,,,,,2-4[12:1],,,,7,,,,2-8[12:1],,,,7,,,,
2,,,,,,,,6,,,,4,,,,7,,,,3h[4:1],,,,,,,,1,,,,
8,,,,7h[4:1],,,,,,,,2,,,,3,,,,4,,,,,,,,1h[32:1]/2h[32:1],,,,
{4}1h[32:1]/2h[32:1],7b/8b,,1b/2b,
{8},5b/7b,,4b/2b,,5b/4b,6b/3b,7b/2b,
{8},5b/7b,,4b/2b,,2b^7[8:1]/7b,2b/7b^2[8:1],,
&inote_7=(183)
{1},
{4}4/6h[16:3],1,2,3,
{8}6,,5h[16:7]/4,,,,3v5[16:12]*qq7[16:22],,
{4},,,,
{4},,5w1[4:1],,
{4},2b/1b,,8b/7b,
{8},4b/2b,,5b/7b,,4b/5b,4b-8[8:1]/5b-1[8:1],,
{32}45,,,,,,,,{16}27,,1,8,2,7,3,6,4h[8:1],,7,8,
{16}6,1,5,2,4h[8:1],,3,4,2,5,1,6,8,,8h[32:1]/7h[32:1],,
8h[32:1]/7h[32:1],,,,17,,8,1,7,2,6,3,5h[8:1],,2,1,
{16}3,8,4,7,5h[8:1],,6,5,7,4,8,3,1,,1h[32:1]/2h[32:1],,
{16}1h[32:1]/2h[32:1],,,,2/5h[16:1],,3,4,3,4,3h[4:1],,,,8,,
{16}7/4h[16:1],,6,5,6,5,6h[4:1],,,,3,,35,,6,,
{16}6/4h[4:1],,,,8b-4[8:1],,,1b,,,2b-6[8:1],,,6b,,,
{16}7b,,8,,2,3,4,5,1,8,7,6,3,4,3,4,
{4}3,7,3qq3[16:5],5,
{8}4pp4[16:5],,3,,3,,5,2h[8:1],
{8}8h[8:1],2h[8:1],8,,2^4[4:1],,4v2[4:1],,
{8}2^4[4:1],,4v2[4:1],,5,,5,1h[8:1],
{8}6h[8:1],1h[8:1],6,,2pp4[4:1],,1-5[8:1],,
{8}1^4[4:1],,4v1[4:1],,6,,7,2h[8:1],
{8}6h[8:1],2h[8:1],6,,35,,1,28,
{8}37,4b/6b,,,4bqq1[2:1]/6bpp1[2:1],,4b/6b,,
{8},,,,6-3[8:1],,6,,
{16}2h[4:1],,,,7V51[4:1],,2,,7,,,,2,,,,
{8}45,,7,,4-1[16:2],,7,,
{16}5q7[16:7],,,,2,,,,3,,,,3,,8,,
{16}4,,7h[8:3],,,,,,1^4[8:1],,,,1,,,,
{16}7h[4:1],,,,2V48[4:1],,7,,2,,,,7,,,,
{8}45,,2,,5-8[16:2],,3,,
{16}1-4[16:2],,,,8,,,,6,5,6,5,6,,1h[32:1]/2h[32:1],,
{4}1h[32:1]/2h[32:1],1b-7[8:1],1/2b-6[8:1],2/3b-5[8:1],
{4}37,7-5[8:1],7/8-4[8:1],8/1-3[8:1],
{4}15,8^5[4:1],5p8[4:1],8^5[4:1],
{8}4,,3h[4:1],,4h[4:1],,5h[4:1],,
{8}6h[4:1],,1,8,2,7,3,6,
{8}4,5h[8:1],1-4[8:1],,7-4[8:1],,2,,
{16}3,5,3,5,3-8[8:1],,,,5-8[8:1],,,,3,,2,,
{8}7,6,4,5,3,6,{16}4,5,4,,
{16}6h[1:1]/3,,,,1b,,,,1,,,,1h[4:1],,,,
{16},,7h[1:1]/2b,,,,2,,,,2,,,,2,,
{16}2,,2,,3b/8h[8:6],,,,3,,,,2,,1,,
{16},,{32}1b,2,3,4,5w1[8:1],6,7,8,1,,,,5,,,,,,,,,,,,36,,,,
45,,,,36,,,,4/5,,,,4,,5,,3,,,,5-2[8:1],,4,,6-1[8:1],,,,5,,,,
6,,,,3,,,,7,,,,1,,8,,2,,,,8-3[8:1],,1,,7-4[8:1],,,,8,,,,
7,,,,,,,,7^4[8:1]/1,,,,6,,,,7/8^3[8:1],,,,1,,,,87,,,,,,,,
6,,,,{48}1,,2,,3,,4,,5,,6,,7,,8,,1,,2,,3,,4,,5-1[8:1],,6,,7,,8-4[8:1],,,,,,5b,,,,,,
{32}8b,,,,,,,,6,,4,,5-8[8:1],,,,3,,,,5/1-4[8:1],,,,2,,,,1,,,,
6pp5[3:1],,,,6,,,,2,,,,3,,,,4qq5[3:1],,,,4,,,,7,,,,,,,,
7,,,,,,,,7-5[12:1],,,,,,,,78,,,,,,,,2-4[12:1],,,,,,,,
21,,,,,,,,4bqq5[8:3]/5bpp4[8:3],36,27,18,,,,,,,,,,,,,,,,,,,,,
4,,5,,4,,5,,1,2,3,4,5,6,7,8,1-5[8:1],,,,7-4[8:1],,,,1b-4[8:1],,,,7,,,,
1,,,,6,,,,2,,,,8,,1,,7,,,,1-6[8:1],,8,,2-5[8:1],,,,1,,,,
2,,,,,,,,2^5[8:1]/8,,,,3,,,,2/1^6[8:1],,,,8,,,,12,,,,,,,,
3,,,,{48}8,,7,,6,,5,,4,,3,,2,,1,,8,,7,,6,,5,,4-8[8:1],,3,,2,,1-5[8:1],,,,,,4b,,,,,,
{32}1b,,,,,,,,3,,5,,4-1[8:1],,,,6,,,,4/8-5[8:1],,,,7,,,,8,,,,
3qq4[3:1],,,,3,,,,7,,,,6,,,,5pp4[3:1],,,,5,,,,3,,,,,,,,
3,,,,,,,,6-8[12:1],,,,,,,,56,,,,,,,,3-1[12:1],,,,,,,,
34,,,,,,,,1^4[12:1]/5^8[12:1],,,,,,,,,,,,,,,,1p5[12:1]/5p1[12:1],,,,,,,,
,,,,,,,,1>1[1:1]/5h[4:5],,,,,,,,,,,,,,,,,,,,,,,,
,,,,,,,,,,,,,,,,,,,,,,,,,,,,8h[32:1]/7h[32:1],,,,
8h[32:1]/7h[32:1],,,,,,,,1,,,,6,,,,2,,,,5h[4:1],,,,,,,,3h[4:1],,,,
,,,,4h[4:1],,,,,,,,,,,,2-4[12:1],,,,7,,,,2-8[12:1],,,,7,,,,
2,,,,,,,,6,,,,4,,,,7,,,,3h[4:1],,,,,,,,1,,,,
8,,,,7h[4:1],,,,,,,,2,,,,3,,,,4,,,,,,,,1h[32:1]/2h[32:1],,,,
{4}1h[32:1]/2h[32:1],7b/8b,,1b/2b,
{8},5b/7b,,4b/2b,,5b/4b,6b/3b,7b/2b,
{8},5b/7b,,4b/2b,,2b^7[8:1]/7b,2b/7b^2[8:1],,
