&title=好きな惣菜発表ドラゴン
&artist=ンバヂ
&first=0.01
&des=Tail_R
&lv_5=0
&lv_7=R
&inote_5=(160)
,,,,
E2,E3,E4,B2f,
1>5[4:1],,1,1,
1>5[4:1],,1,
1pp4[4:3],,,,,
1>5[4:1],,1,1,
1>5[4:1],,1,1,
1>5[4:1],,1,
1pp5[4:3],,,,,8,1,1,,
{1},,,,,,,,,,,,,,
{16}5,,5,4,3,,,,2h[8:1]/4h[8:1],,,,2h[8:1]/4h[8:1],,,,
5,,5,4,3,,,,2h[8:1]/4h[8:1],,,,2h[8:1]/4h[8:1],,,,
5,,5,4,3,,,,2h[8:1]/4h[8:1],,,,2h[8:1]/4h[8:1],,,,
5,,5,4,3,,,,3h[8:1]/4h[8:1],,,,3h[8:1]/4h[8:1],,,,
5,,5,4,3,,,,2h[8:1]/4h[8:1],,,,2h[8:1]/4h[8:1],,,,
5,,5,4,3,,,,2h[8:1]/4h[8:1],,,,2h[8:1]/4h[8:1],,,,
5,,5,4,3,,,,2h[8:1]/4h[8:1],,,,2h[8:1]/4h[8:1],,,,
3^6[8:1],,,,,,,,,,,,,,,,
{1},,,,,,,,,,,,,,,,,,
{8},3,3,4,2h[4:1],,4,5,
5h[8:1]/3h[8:1],,4h[8:1]/2h[8:1],,3h[8:1]/1h[8:1],,8>5[4:3],8h[8:9],
,,,,,,,,,,,,1/2,,2/4,2/4,
{8},3,3,4,2h[4:1],,4,5,
5h[8:1]/3h[8:1],,4h[8:1]/2h[8:1],,3h[8:1]/1h[8:1],,8-5-1-4-2[4:4],8h[8:9],
&inote_7=(160)
,,,,
E2,E3,E4,B2f,
1>5[4:1],,1,1,
1>5[4:1],,1,
1pp4[4:3],,,,,
1>5[4:1],,1,1,
1>5[4:1],,1,1,
1>5[4:1],,1,
1pp5[4:3],,,,,8,1,1,,
{16}25,,3,4,3,,17,,5-7[8:1]/3,,1/7-3[8:1],,5,,3,,
{16}1,,6,5,6,,28,,4-2[8:1]/6,,8/2-6[8:1],,4,,6,,
{8}1-6[8:1],3,2,1-4[8:1],7,8,1-6[8:1],3,
{8}2,1-4[8:1]*-3[8:1],1,1b-6[8:1]*-7[8:1],,1b,,1/8,
{16}2-5b[8:1],,,,,,1-6-1-6-1-6-1-6-1-6-1-6-1-6[8:9],,,,,,7,,7,,
{16}C,C,C,C,C,C,C,C,C,C,C,C,C,,,,
{8}2-6[8:1],3,{16}2V41[16:3]/6,7,,,{16}28,8,,7h[8:1],,8,8,,
{8}7-3[8:1]/1,6,{16}7V58[16:3]/3,2,,,{16}71,1,,2h[8:1],,8,7,6,
{4}5^8[8:1],3^8[8:1],4-8[8:1],8x,
{16}8bx,8,8,8,8,8,8,8,8x,,,,3/6,,,,
{8}2/8-6[8:1],,8-4[8:1]/4-2b[8:1],5,8/4-6[8:1],,4x-8[8:1]/8-2b[8:1],1,
{8}8-6[8:1]/4,,8x-4[8:1]/4-2b[8:1],5,8/4-6[8:1],,4/8,,
{1}3-5-2-6-1-7^8-5q4b[2:3],
{1},
{16}5,,5,4,3,,,,2h[8:1]/4h[8:1],,,,2h[8:1]/4h[8:1],,,,
5,,5,4,3,,,,2h[8:1]/4h[8:1],,,,2h[8:1]/4h[8:1],,,,
5,,5,4,3,,,,2h[8:1]/4h[8:1],,,,2h[8:1]/4h[8:1],,,,
5,,5,4,3,,,,3h[8:1]/4h[8:1],,,,3h[8:1]/4h[8:1],,,,
5,,5,4,3,,,,2h[8:1]/4h[8:1],,,,2h[8:1]/4h[8:1],,,,
5,,5,4,3,,,,2h[8:1]/4h[8:1],,,,2h[8:1]/4h[8:1],,,,
5,,5,4,3,,,,2h[8:1]/4h[8:1],,,,2h[8:1]/4h[8:1],,,,
3^6[8:1],,,,,,,,,,,,C,,,,
{4}2bhb[4:1]/3V15b[4:1],,2q3[4:1],,
{32}5bv8b[8:1],,,,,,,,,B5,C,B2,A2,,,,3p2[4:1]*p2[4:1],,,,,,,,,,,,,,,,
{16}7b,,8,8h[16:3],
,,6,,
7-5[8:1]/5,,8,,
4-7[8:1]/7,,3,,
{16}8-4[8:1]/4,,1,,
3-8[8:1]/8,,2,,
31,,,,
62,,,,
{16}1b^4[8:1]/7,,,8,1,,7,,6/5<8[8:1],,,4,5,,3,,
{16}2/1^4[8:1],,,8,1,,7^4[8:1]*p1[16:4],,4^1[8:1],,7,,,,,,
{16}2h[4:1]/4-8[8:1],,{32}8,7,6,5,{16}4,,3h[4:1],,{32}1V38[4:1],8,7,6,{16}5h[8:1],,1,,,,
4V25[4:1],4,,5,,6,6-1[8:1],,6v3[8:1],,,,,,,,
{16}5-8[80#8:1]*-8[80#8:1],,,,,,,,1h[2:1],,,,,,6,,
{16}5-8b[8:1],,,,3h[4:1],,,,5-8[8:1],,D5,,D4,,D3,,
{16}7-1b[10:1],,6,4,7,,3,,2-6b[10:1],8,3,5,2,,8,,
75,,45,,24,,6,4,8h[8:1],,5,7,4,6,3,5,
{16}2xh[8:1],,{32}8x,7x,{16}6xh[8:1],,{32}3x,2x,{16}1xh[8:1],,{32}7x,6x,{16}5xh[8:1],,{32}2x,1x,{16}8xh[8:1],,{48}E3,B2,B1,B8,B7,E7,
{32}4x,3x,2x,1x,8x,7x,6x,5x,4x,3x,2x,1x,8x,7x,6x,5x,4xv5^4[8:1],3x,2x,1x,8x,7x,6x,5x,{16},,,,
{12}3,4,5,3v5[16:5]*>5[16:5],4,5,,,,,,,
{12}6,5,4,6<6b[8:3],5,4,,,,,,,
{8}5b/4b^1[8:1],6,7V53[4:1]/4,{16}8,8,,1,,2,2,,5/1,,
{8}6-1[8:1],7,6/2^5[8:1],3,2-6[8:1],8,2,,
{8},3,3,4,2h[4:1],,4,5,
5h[8:1]/3h[8:1],,4h[8:1]/2h[8:1],,3h[8:1]/1h[8:1],,8>5[4:3],8h[8:9],
,,,,,,,,,,,,1/2,,2/4,2/4,
{8},3,3,4,2h[4:1],,4,5,
5h[8:1]/3h[8:1],,4h[8:1]/2h[8:1],,3h[8:1]/1h[8:1],,8-5-1-4-2[4:4],8h[8:9],,,,,,,,,,,,,,,,,
{16}7b/2b,,3,6,4,6,5,6,7-4[8:1],,8,,1q5[8:1]/7,,2,,1/6,,7,,
8/3,,6,3,5,3,4,3,2,,1/8,,
7xv2b[16:2]/2,,,,
{48}E4f/7b,E5,E6,,,,{8},1^6[16:2],{16}3,3,1^4[16:2],,2,,1/7v2b[16:2],,,,
{48}7b/E4f,E5,E6,,,,{8},1^6[16:2],{16}3,3,1,,2,,
{24}
5x,6x,5x,6x,5x,6x,5x,6x,5x,6x,5x,6x,
A4,A7,D4,D7,A3,A6,D3,D6,A2,A5,D2,D5,
A1,A4,E2,E5,B2,B5,B3,B6,E4,E7,A4,A7,,,,,,,
Cf/B2/B7/B4/B5/E1/A2/A7,,,,,,
{16}1x-5[8:1],,,,7-3[8:1]/1x,,,,2,,1,,8-3[8:1]/4x-7[8:1],,,,
{16}8x-4[8:1],,,,2-6[8:1]/8x,,,,7,,8,,1/5,,,,
{16}2-6[8:1],,,,8-5[8:1],,,,2-6[8:1],,,,4-1[8:1],,4,,
{16}2-6[8:1],,,,8-5[8:1],,,,2-6[8:1],,,,4,,4,,
(80){24}1b^4[12:1]/8bq4[12:1],,,5^8[12:1]/4q8[12:1],,,
1x/8x,,,,,,
1-6[12:1],,8,2-5[12:1],,,
13,,,,,,
7>3[24:3],,5,3p6[24:3],,,
7x/4x,,,,,,
1pp1[12:2],,,73,,,
51,,,,,,
(160)
{8}1V38[4:1],3,,5V74[4:1],7,,3V14[4:1],1,,7V58[4:1],5,,3-5[8:1],2h[8:1],,,
Ch[16:30],,,,
{8}1hx[8:11],,,,
{16},,B1,,,B2,,,B3,,,B4,,,B5,,
{16}1bx-4[8:1],,,,6,,7b^2[8:1],,,,4,,5bh[4:1],,,,
{16}D4,D3,D2,D1,D8,D7,D6,,4x,,,,7h[4:1],,,,
{24}2b,3,4,5-8b[8:1],,,,,,1b,2b,3b,4b^7b[8:1],,,,,,8bqq1[32:19],1,2,3V51b[32:15],,,
{4},,,C,
