&title=Medjed
&artist=Avans
&first=0.02
&des=Nitocris
&lv_5=14
&inote_5=(80)
{32},,,,
,,,,
,,,,
,,,,
{32},,,,
,,,,
,,,,
,,,,
{32}7^2[16:3],,,,
,,3^6[16:3],,
,,,,
6qq3[16:8],,,,
{32},,,,
,,,,
,,,,
,,,,
{32},,,,
,,,,
,,,,
5q4[16:6],,,,
{32},,,,
,,,,
,,,,
,,,,
{32}2^7[16:3],,,,
,,6^3[16:3],,
,,,,
3pp6[16:8],,,,
{32},,,,
,,,,
,,,,
,,,,
{32},,,,
,,,,
,,,,
8w4[16:4],,,,
{32},,,,
,,,,
,,,,
,,,,
{32}4^6[16:4],,,,
,,,,
,,,,
,,,,
{32}5^3[16:4],,,,
,,,,
,,,,
,,,,
{32}4^6[16:4],,,,
,,,,
,,,,
,,,,
{32}5^3[16:4],,,,
,,,,
,,,,
,,,,
{32}4^6[16:4],,,,
,,,,
,,,,
,,,,
{32}5^3[16:4],,,,
,,,,
,,,,
,,,,
{32}4^6[16:4],,,,
,,,,
,,,,
,,,,
{32}5w1[16:2],,,,
,,,,
,,,,
,,,,
{32}1^3[16:1],,5^3[16:1],,
,,,,
1^7[16:1],,5^7[16:1],,
,,,,
{32}1^3[16:1],,5^3[16:1],,
,,,,
1^7[16:1],,5^7[16:1],,
,,,,
{32}1^3[16:1],,5^3[16:1],,
,,,,
1^7[16:1],,5^7[16:1],,
,,,,
{32}1^3[16:1],,5^3[16:1],,
,,,,
1^7[16:1],,5^7[16:1],,
,,,,
{32}1^3[16:1],,5^3[16:1],,
,,,,
1^7[16:1],,5^7[16:1],,
,,,,
{32}1^3[16:1],,5^3[16:1],,
,,,,
,,,,
,,,,
{32}1-6[16:1]*s5[16:8]/7,,,,
5s1[16:6]/3,,,,
,,,,
,,,,
{32},,,,
,,,,
,,,,
,,,,
{32}1<1[16:8],,,,
,,,,
,,,,
,,,,
{32},,,,
,,,,
,,,,
,,,,
{32}1>5[16:4]/5^8[16:3],,,,
,,,,
5<1[16:4],,,,
,,,,
{32},,,,
,,,,
,,,,
,,,,
{32}1>1[16:8]*<1[16:8],,,,
,,,,
,,,,
,,,,
{32},,,,
,,,,
,,,,
,,,,
{32}1>5[16:4]/5>1[16:4],,,,
,,,,
5<1[16:4]/1<5[16:4],,,,
,,,,
{32},,,,
,,,,
,,,,
,,,,
{32}1h[16:2],,,,
5h[16:2],,,,
6h[16:2],,,,
2h[16:2],,,,
{32}3h[16:2],,,,
7h[16:2],,,,
8h[16:2],,,,
4h[16:2],,5,,
{32}5h[16:2],,,,
1h[16:2],,,,
2h[16:2],,,,
6h[16:2],,,,
{32}7h[16:2],,,,
3h[16:2],,,,
4h[16:2],,,,
8h[16:2],,1,,
{32}1h[16:1],,5h[16:1],,
3h[16:1],,7h[16:1],,
5h[16:1],,1h[16:1],,
7h[16:1],,3h[16:1],,
{32}1h[16:1],,5h[16:1],,
7h[16:1],,3h[16:1],,
5h[16:1],,1h[16:1],,
3h[16:1],,7h[16:1],,
{32}1,8,8,1,
1,8,8,1,
1,8,8,1,
1,8,8,1,
{32}1V35[16:2]*V75[16:2],,,,
,,,,
,,,,
,,,,
{32}1s5[16:2],8,7,6,
5,4,3,2,
,,,,
,,{48}5h[16:5]/7,6,,{32}
{32},,,,
{48}7,6,,{32},,
,,{48}7,6,,
{32}8,,1,,
{48}2-6[16:1],3,4,
5,,,
1,
8,7,6,,,
{32},,,,
{48}7,6,,{32}5h[16:5],,
{32},,{48}7,6,,{32}
,,,,
7,5,6,5,
7,,,,
{32}8z4[16:2],1,2,3,
4,5,6,7,
,,,,
,,{48}4h[16:5]/2,3,,{32}
{32},,,,
{48}2,3,,{32},,
,,{48}2,3,,
{32}1,,8,,
{48}7-3[16:1],6,5,
4,,,
8,
1,2,3,,,
{32},,,,
{48}2,3,,{32}4h[16:2],,
{32},,{48}2,3,,{32}
4h[16:1],,5h[16:1],,
7h[16:1],,5h[16:1],,
4h[16:1],,2,,
{32}1s5[16:2]/5s1[16:2],26,37,48,
5,6,7,8,
,,,,
,,{48}4h[16:2]/2,3,,{32}
{32},,,,
{48}4h[16:2]/2,3,,{32},,
,,{48}42,3,,
{32}1,,8,,
{48}7-3[16:1]/1h[16:4],6,5,
4,,,
3,
4,5,6,,,
{32},,,,
{48}2,3,,{32}4h[16:2],,
{32},,{48}2,3,,{32}
4h[16:2],,,,
2h[32:1],3h[32:1],2h[32:1],3h[32:1],
2,,,,
{32}8z4[16:2]/4z8[16:2],73,62,51,
4,3,2,1,
,,,,
,,{48}5h[16:2]/7,6,,{32}
{32},,,,
{48}5h[16:2]/7,6,,{32},,
,,{48}57,6,,
{32}8,,1,,
{48}2-6[16:1]/8h[16:4],3,4,
5,,,
6,
5,4,3,,,
{32},,,,
{48}7,6,,{32}5h[16:2],,
{32},,{48}7s3[16:2],6,,
{32}5h[16:2],,,,
,,,,
,,,,
{32}1s5[16:2]*z5[16:2],28,37,46,
5,46,37,28,
,,,,
,,{48}75,6,5,{32}
{32},,,,
{48}75,6,5,{32},,
,,{48}75,6,5,
{32}8,,1,,
{48}2-6[16:1]/5,36,47,
5/8h[16:3],,,
6,5,4,3,,,
{32},,,,
{48}7,6,5,{32}5,,
{32},,{48}7,6,5,{32}
5V31[16:1],,,,
7h[16:2],,,,
,,,,
{32}8z4[16:2]*s4[16:2],71,62,53,
4,53,62,71,
,,,,
,,{48}24,3,4,{32}
{32},,,,
{48}24,3,4,{32},,
,,{48}24,3,4,
{32}1,,8,,
{48}7-3[16:1]/4,63,52,
4/1h[16:3],,,
3,4,5,6,,,
{32},,,,
{48}2,3,4,{32}4,5,
{32}6h[16:1],,{48}2,3,4,{32}8h[16:1],,4h[16:1],,
2h[16:1],,6h[16:1],,
4h[16:1],,8,,
{32}1z5[16:2]/5s1[16:2],24,3,24,
15,86,7,68,
,,,,
,,{48}24,3,42,{32}
{32},,,,
{48}24,3,42,{32},,
,,{48}24,3,42,
{32}1,,8,,
{48}7-3[16:1]/4,63,52,
41,,,
38,41,52,63,,,
{32},,,,
{48}2,23,34,{32}4,,
{32},,{48}2,23,34,
{32}4-7[16:1]*-1[16:1],,,,
2h[16:1]/6h[16:1],,,,
,,,,
{32}8s4[16:2]/4z8[16:2]
,75,6,75,
84,13,2,31,
,,,,
,,{48}75,6,57,{32}
{32},,,,
{48}75,6,57,{32},,
,,{48}75,6,57,
{32}8,,1,,
{48}2-6[16:1]/5,36,47,
58,,,
61,58,47,36,,,
{32},,,,
{48}7,76,65,{32}5,,
{32},,{48}7,76,65,
{32}5,,,,
{48}1b/8b,8b/1b,,{32},,
,,,,
{32}2<6[16:4],,1<5[16:4],,
8<4[16:4],,7<3[16:4],,
,,,,
2<6[16:4],,1<5[16:4],,
{32}8<4[16:4],,7<3[16:4],,
,,,,
2,,1,,
8,,7,,
{32}6>2[16:4],,5>1[16:4],,
4>8[16:4],,3>7[16:4],,
,,,,
6>2[16:4],,5>1[16:4],,
{32}4>8[16:4],,3>7[16:4],,
,,,,
6,,5,,
4,,3,,
{32}2<6[16:4],,1<5[16:4],,
8<4[16:4],,7<3[16:4],,
,,,,
2<6[16:4],,1<5[16:4],,
{32}8<4[16:4],,7<3[16:4],,
,,,,
2,,1,,
8,,7,,
{32}6>2[16:4],,5>1[16:4],,
4>8[16:4],,3>7[16:4],,
,,,,
6,,5,,
{32}4,,3,,
,,,,
3,,4,,
5,,6,,
{32}7>3[16:4],,8>4[16:4],,
1>5[16:4],,2>6[16:4],,
,,,,
7>3[16:4],,8>4[16:4],,
{32}1>5[16:4],,2>6[16:4],,
,,,,
7,,8,,
1,,2,,
{32}3<7[16:4],,4<8[16:4],,
5<1[16:4],,6<2[16:4],,
,,,,
3<7[16:4],,4<8[16:4],,
{32}5<1[16:4],,6<2[16:4],,
,,,,
3,,4,,
5,,6,,
{32}7>3[16:4],,8>4[16:4],,
1>5[16:4],,2>6[16:4],,
,,,,
7>3[16:4],,8>4[16:4],,
{32}1>5[16:4],,2>6[16:4],,
,,,,
7,,8,,
1,,2,,
{32}3<3[16:8],,4<4[16:8],,
5<5[16:8],,6<6[16:8],,
,,,,
,,,,
{32},,,,
,,,,
,,,,
,,,,
{32}7^2[16:2],,,,
3^6[16:2],,,,
6qq3[16:6],,,,
,,,,
{32},,,,
,,,,
,,,,
,,,,
{32}2^7[16:2],,,,
6^3[16:2],,,,
3pp6[16:6],,,,
,,,,
{32},,,,
,,,,
,,,,
,,,,
{32}7^2[16:2],,,,
3^6[16:2],,,,
6qq3[16:6],,,,
,,,,
{32},,,,
,,,,
,,,,
,,,,
{32}2^7[16:2],,,,
6^3[16:2],,,,
3pp6[16:6],,,,
,,,,
{32},,,,
,,,,
,,,,
,,,,
{32}7b-5[16:2],,,,
7p3[16:2],,,,
7^2[16:2],,,,
7pp2[16:4],,,,
{32},,,,
,,,,
,,,,
,,,,
{32}2-4[16:2],,,,
2q6[16:2],,,,
2^7[16:2],,,,
2qq7[16:4],,,,
{32},,,,
,,,,
,,,,
,,,,
{32}7-5[16:2],,,,
7p3[16:2],,,,
7^2[16:2],,,,
7pp2[16:4],,,,
{32},,,,
,,,,
,,,,
,,,,
{32}2-4[16:2],,,,
2q6[16:2],,,,
2^7[16:2],,,,
2qq7[16:4],,,,
{32},,,,
,,,,
,,,,
,,,,
{32}5q4[16:4]/4p5[16:4],,,,
,,,,
,,,,
,,,,
