&title=ちっちゃな私
&artist=重音テト; マサラダ
&first=2.3
&des=61t7
&clock_count=4
&lv_5=13+
&inote_4=(143)
{8}6qq6[4:1]*V85[4:1],6,6<4[16:6],
&inote_5=(143)
{4}A3,B3/E3,{8}C,B1/B2,B8,D8/A8,
{4}3h[4:1],7^4[8:1],B2/C,1h[8:1],
{4}4/2h[4:1],4^7[8:1],E8/A8,2h[8:1],
{4}3h[4:1]/8,8<5[8:1],B2/C,3h[8:1],
{4}2/4<7[8:1],A8/E8,8x<5[8:1]/3,2h[8:1],
{4}3h[4:1]/4,4^7[8:1],B2/C,1h[8:1],
{4}7/3h[4:1],7^4[8:1],A8/E8,
{4}1h[8:1],2h/3h,2h/4h,3h[4:1]/5h,
{8}5<8[8:1],5,5>2[8:1],,5p4[4:1]b,,,,Cf,,
{8}3h[4:1],,5,4/6h[4:1],5pp5[4:1]*qq5[4:1],5,,,,,,
{48}C,,E3/E8,A3/A7,D4/D7,A6/A4,D6/D5,,,,,,,,,,,,
{4}1bx,
{8}6,7-2[8:1],,4,3-6[8:1],,1-4[8:1]*-6[8:1],1,1,,,
{48}A5,B5,,C,,B1,A1,,,,,,,,,,,,
{4}1bx,
{8}4pp4[4:1]*qq4[4:1],,4,,,,4v2[8:1]/6v8[8:1],,,,,
{48}A6/A4,,B6/B4,,C,B2/B8,A8/A2,,,,,,,,,,,,
{4}1bx,
{8}2h[4:1]/5,,4,3/5,4/6<2v4[16:6]b,,,,,,,
{48}A4/A3,,E3/B4,,E2/C,,B8/A1,,,,,,,,,,,,
{8}7,7h[4:1],6,5,4-8[8:1],3,,,
{8}7,7h[4:1],6h,5h,4-8[8:1]b,3h,4bx/2h,,
{8}1>4[8:1],2,5pp8[16:5]*qq2[16:5],,
{8}5h,,,,
{4}1>4[8:1],5-1[8:1]*-8[8:1],5xb-2[8:1]*-7[8:1],,
{8}1/8,,7-5[8:1],7,8-4[8:1],8,1-3[8:1],1,1-5[8:1],,,,4-1[8:1],,
{8}4/5-8[8:1],,5h,,1bx-3[8:1]b,1h,8bx-4[8:1],8h,7bx-5[8:1]b,7h,7b-3[8:1],,7h/4x,,,
{8}6,3,4b/5b,
{8}4b-8[8:1]/5b,,
{4}4-7[8:1]/5-2[8:1],5-1[8:1],4-7[8:1]/5-2[8:1],4-8[8:1],
{4}4h/5<3[4:1],4bx-8[8:1]b,4>6[4:1],4bx-8[8:1]b,4>6[4:1],4b-8-4[4:1]b,
{2},
{24}8xb/4xb,7x,6x,5x,4x,3x,
{32}2bx,1x,8x,7x,6x,5x,4x,3x,
{48}2bx,1x,8x,7x,6x,5x,4x,3x,2x,1x,8x,7x,
{4}6xb/3xb,
{4}4-7[8:1]/5-2[8:1],5-1[8:1],4-7[8:1]/5-2[8:1],4-8[8:1],
{4}4h/5-2[8:1]*-8[8:1],5bx-1[8:1],5-7[8:1]*-8[8:1],5bx-3[8:1]*-2[8:1],5w1[8:1],5b,
{8}7<4[8:1],4<3[16:5]b,,,,,
{24}4xz8[24:8],5xs1[24:7]b,6x,7x,,,
{4},,
{16}6,5,6h[8:1],,4,,7/5,,
{16}3,4,3h[8:1],,5,,2/5,,6,,7/4,,
{16}8,2,8h[8:1],,4-8[8:1],,4-2[12:1],,,,,,
{16}7,5,7h[8:1],,3,4,2,5,1-3[12:1],,1-5[8:1],,,,,,
{8}4h[8:1],8,5h[8:1],1,3h[8:1],8,6h[8:1],1,4h[8:1],
{24}7,6,5,4hx[8:1]/3x,,,2,3,4,5hx[8:1]/6x,,,7,6,5,4x/3hx[8:1],,,,,,
{8}6qq5[32:7]*V85[32:7],6,6<4[16:6]/5,,,
{8},5,6h[4:1],,
{16}3,5,2,,2,,3/5,,5,,6/4,,4-8[8:1],,,,5-2[8:1],,,,1-5[8:1],,,,1b/7,,,,
{8}6,7h[4:1]/1,B3,E4,
{8}5,6h[4:1]/2,B3,E4,
{8}5,2/5,
{24}4,3,4,
{8}3h[4:1],B3,E4,,
{8}2/5,
{8}1,2/6h[4:1],B3,E4,
{8}2,3/5h[4:1],B3,E4,
{8}2h[8:1]/6h[8:1],,2/6,3/7,2/6,3/7-1-5-3[4:1]b,,,,
{8}2h[8:1],3x,2/4,1h[8:1],3,4,2/5,
{8}8,7/1,6/2,
{24}4,3,4,3,,,
{8}3/5-2[8:1],4,5/7,
{8}8,8/1,8/2,8/3,8/4,8/5,8-4[8:13]*-4[8:13]/6,8/6,,
{1},,
{2}8qq8[2:3],4qq5[1:1],,,
{2}1qq1[2:3],5qq4[1:1],,,
{2}2<6[2:3],4pp6[1:1],,,
{2}5qq3[2:3],4pp6[1:1],,,
{8}8h[8:3],,,1-5[8:1],7-3[8:1],,,,
{8}2h[8:3],,,8-4[8:1],2-6[8:1],,,,
{8}4,,,3v1[8:1]/5v7[8:1],3/5,,,,
{8}7h/1h,,,7v5[8:1]/1v3[8:1],2h/6h,,,,
{8}4qq4[8:3],,,8,8,,,,
{8}4qq4[8:3]/8b<5[8:3],,,,,,,,
{8}6h[2:1],,,5,4-6[8:1],,7-4[8:1],,,,,
{8}3,3h/5-3[8:1],,2-5-1[4:1],,,,,
{8}6^3[8:1],3-6[8:1],,,
{24},
{24}2,3,4h[24:3],,,5,,,2,,,2,3,4,5^2[8:1]b,,,6,,,7,,,8,,,
{8}8,8/1,8/2,8/3h[2:1],1,2,4,5,
{4}3h/5b<8[8:1],1bxp5[8:1]/5^2[8:1],1bxq5[8:1],1bx/6<3[4:1],
{4}6h/5-1[8:1]b,5bx<3[4:1]`Cf,5-1[8:1]b,5bx<3[4:1]`Cf,5b-1[8:1]b,,
{8}8h,7h/1h,6h,2h/5h,
{24}4bx,3x,2x,1x,8x,7x,
{32}4bx,3x,2x,1x,8x,7x,6x,5x,
{48}A4,A3,A2,A1,A8,A7,A6,A5,A4,A3,A2,A1,
{4}A8f,
{8}1b-5[8:1]/5h,,1-6[8:1],6-2-4-8[8:3],1-5-7[4:1]b,,,,,,
{32}8-4[8:1],1,2,3h[32:5],,,,,8b`Cf,,,,,,,,
{32}8-4^7[4:1],1h,2^4-8[16:3]b,3h,,,,,,,,,,,,,
{4},
{8}4h/8,4/8h,3h/7,2/6h,2pp7^1[2:1]b/6pp3^5[2:1],,
{4},Cf,,
{32}5b<3[4:1]/3h,,,,,,,,
{8}4-8[8:1]b,4h,4h,,7h,6h,
{4}5<8[8:1]b/2h,5bx-1[8:1]/1-5[8:1],
{4}5<8[8:1],3xbp6[16:2]b*>8[16:2],,
{32}5x-7-4-8[12:4],4bx,3x,2bx,1x,8bx,7x,6bx,
{8},,,,
{24}1bx,2x,3x,4x,5x,6x,
{32}1bx,8x,7x,6x,5x,4x,3x,2x,
{48}1bx,8x,7x,6x,5x,4x,3x,2x,1x,8x,7x,6x,
{4}5bx,
{8}4b-8[8:1]/5b,,
{4}4-7[8:1]/5-2[8:1],5-1[8:1],4-7[8:1]/5-2[8:1],4-8[8:1]b,
{4}4/5bx<3[4:1],4bx-8[8:1]b,4bx>6[4:1],4bx-8[8:1]b,4bq1p4>8[2:1],
{2}4p7[4:1]b,
{4},
{16}7/4,,{24}6,4,6pp8[24:4],4^1[8:1]b,,,5,,,,,,,,,
{8}7h[4:1],,B1,,6/B3,,
{8}7,6h/2h,5h,,7h/B1,B2,B3/5h,,7h/B1,B2,5h[4:1],,
{4}B3,6/E4,
{8}5h[8:1],6h[8:1],7h[8:4],,B1,B2,B3,,B2,B3/8,
{8}7h[4:1],,B1,,6/B3,,
{8}7,6/2,5,,7/B1,B2,B3/5,,7/B1,B2,5h[4:1],,
{4}B3,6/E4,
{8}5h[8:1],6h[8:1],7h[8:4],,1,2,3^8[8:1]b,,,,
{8}6h[8:4],,,5,5pp2[16:6],,,,,E
