&title=Lv.0
&artist=I.O
&first=0.045
&des=こむぎこ(Lv.0)
&lv_5=13
&inote_5=(53.33){8}2/4<8[4:1],{24}1,2,3,{12}4,,4,{8}5>1[4:1],{24}8,7,6,{12}5,,5,
{4}6q3[4:1],2q7[4:1],,5w1[12:5],
{8},,,,4/7p4[4:1],{24}2,1,8,{12}7,3,3,
{8}2q5[4:1],{24}7,8,1,{12}2<4[2:1],,1,{2}2,
{6}3h[4:1],{12}C,6h[4:1],,2,{8}2p8[4:1],{24}5,4,3,{12}2,7,7,
{8}6p4[4:1],{24}1,8,7,{12}6,3,2,1q6[6:1]*>5[6:1],7/8,{3}8/7,
{8}7<1[4:1],{24}1,1,8,{4}7/5h[6:1],{24}3V17[6:1],4,3,2,3,4,{12}3,5,5,
{24}6V82[6:1],5,6,7,6,5,{12}6,4,{24}4,4,4>1[12:1],5,4<7[12:1],3,4-8[12:1],5,{4}4pp7[4:1],
{2}4qq1[4:1],{24}7V51[6:1],6,7,8,7,6,,,3,3,{12}3,
{24}2>5[12:1],3,2<7[12:1],1,2-6[1.1251##0.375],3,{48},,,,,,,,,,,,(158){16}8<1[0.3872##4.3678],(156),(154),(152),(150),(148),(146),(144),
(142),(140),(138),(136),(132){64}B4,B3,,,(128){16},(124),(120),(116){4},(112){16},(108),(104),(100){64},,,Ch[64:53],
(105){16},(110),(115),(120),(125),(130),(135),(140),(145),(150),(155),(160),(170),(180),(190),(200),
(210),(240),,,,,,,,,(230){8}5,4,3,
2,3,4,3b,4,5,4,5,
6,7,6,5,4,3,1,2b,
3,4,5,6,5,{16}7x,4,7x,4,6x,3,
6x,3,5,6,7,8,{8}1b,2,3,2,1,
8,7,7,6,6,5,5,4,
4,3/7x-3[8:1],,7x,,4,5,4,
3,2,{16}1,2,{8}3,5,4,5,6,
7,5,4,5,6,7,8,1,
2,1,{4}8,{8},8/E8,8/E7,8/E6,
,,,1/E2,1/E3,1/E4,,,,8/B1,
8/C,8/B5,7,6,5,4,
3,2,1,2,3,1/4b,4/1b,1/4b,
,,,8/5b,5/8b,8/5b,,,,7b/2b,
7b/2b,2b-5[8:1]/7b-4[8:1],,7b/2b,{16},,(228.6)7b/2b,(227.2),
(225.8),(224.4),(223)6,(221.6),(220.2)5,(218.8),(217.4)4,(216),(214.6)3,(213.2),(211.8)6,(210.4),(209)5,(207.6),(206.2)4,(204.8),
(203.4)3,(202),(200.6)6,(199.2),(197.8)5,(196.4),(195)4,(193.6),(192.2)3,(190.8),(189.4)6,(188),(186.6)5,(185.2),(183.8024)4,(182.4),
(181)3,(179.6),(178.2)6,(176.8),(175.4)5,(174),(172.6)4,(171.2),(169.8)3,(168.4),(167)2,(165.6),(160){8}1,(53.33)4/8qq3[4:1],
{24}6,5,4,8/3,,E2,,E3,,{8}4,{24}7,8,1,4/2<4[2:1]*q3[4:1],,4/6,,6/8,,{8}2,
{24},,,,,E1,,E2,,{8}3h[4:1],{24},C,,{8}6h[4:1],{24},3,,{8}2q8[6:1],
{24}6,5,4,3,,7,,7,,{8}2/6q4[6:1],{24}1,2,3,4<3[4:1],,3,,2,,{8}3xV17-5[4:1],
,4,{24}2,2,3,4w8b[6:1],,,7/1,6/2,5/3,4,,,,,,4-7[12:1],4,7-3[12:1],
7,3-6[12:1],3,2,,,,,,1-6[12:1],1,6-2[12:1],6,2-7[12:1],2,3,,,,,,5-2[12:1],5,2-6[12:1],
2,6-3[12:1],6,3<1[4:1],,,,,,1<3[4:1],,1,1,2,2,3,,2,2,1,1,8-4[12:1],8,4V62[6:1],
4,6,6,7,,8,,1,,1-5[12:1],1,5V37[1.1251##0.7501],5,3,3,4,,3,,2,,(48){8}1>8[1.25##5.6743],
{48},,,,,,(152)B6,B5,(50){32},{64},,,,,,,,,,,,,,,,,,,Ch[32:27],
E
