&title=OMG!!
&artist=Yuta Imai & DJ Noriken
&first=0
&des=VodkG
&lv_5=14+
&inote_5=(340){12},(170)
{4}1,2,3,4h[1:1],8h[8:1],8h[8:1],7h[8:1],7,
{4}5,6,7,8h[1:1],1-3[8:1],,4-2[8:1],,
{4}1,2,3,4h[1:1],{8}E1,B8,B7,,E7,B6,B5,,
{4}5,6,7,8h[1:1],1-3>2-4>3-5[2:1],,,,
{4}B5/1xh[8:1],B6/2xh[8:1],B7/3xh[8:1],B8/4xh[8:1],
{4}2v5[8:1]/8v5[8:1],2/8,1q8[8:1]/8p1[8:1],1/8,
{4}B1/5xh[8:1],B2/6xh[8:1],B3/7xh[8:1],B4/8xh[8:1],
{4}1-5[8:1]/8-2[8:1],1/8,1-4[8:1]*-6[8:1],1,
{4}B1/5xh[8:1],B2/6xh[8:1],B3/7xh[8:1],B4/8xh[8:1],
{4}8-5[8:1]*q5[8:1],8,1-4[8:1]/6>4[8:1],1/6,
{4}B5/1xh[8:1],B6/2xh[8:1],B7/3xh[8:1],B8/4xh[8:1],
{4}6V84[4:1],4-2[8:1],,,
{4}6xh[4:7]/B1,B2,B3,B4,B5,B6,B7,{8}B8,E1,
{4}3xh[4:7]/B1,B2,B3,B4,B5,B6,B7,B8f,
{8}1,1,3,3,5,5,7,7,2,2,4,4,5,5,7,7,
{16}1,7,3,6,2,8,4,6,2,5,1,8,4,6,3,7,
{4}1b-5[8:1],2-6[8:1]*-6[8:1],3x-7b[8:1],3b,
{8}1/5,,4/6,7,3/5,2,4/6,8,1-5[8:1],1,7-4[8:1],7,2-6[8:1],2,8-5[8:1],8,
{8}1,,1/7,6,2/8,3,1/7,5,2>5[8:1],2,8-4[8:1],8,1-5[8:1],1,7<4[8:1],7,
{4}1xqq2[4:1],2xqq3[4:1],3xqq4[4:1],4x,{8}8-6[8:1],6-8[8:1],8-4[8:1],4-2-6-8[8:3],,,,,
{4}5xqq6[4:1],6xqq7[4:1],7xqq8[4:1],8x,{8}1x-6[8:1],6-1[8:1],1-4[8:1],4p1[4:1],,,8w4[8:1],,
{8}8b,,2-4[8:1],1,8-5[8:1],7,4-8[8:1],3,7<4[8:1],7,3>8[8:1],3,6<1[8:1],6,2>5[8:1],2,
{8}7,,2-5[8:1],3,6-1[8:1],7,4-8[8:1],5,7<4[8:1],7,2>5[8:1],2,8<5[8:1],8,1,1,
{4}1xV72[4:1],2xV83[4:1],3xV14[4:1],4x,{8}7-5[8:1],8-4[8:1],7,8,1-6[8:1],2,1,,
{4}5xV36[4:1],6xV47[4:1],7xV58[4:1],8x,{8}3-5[8:1],5-2[8:1],3,,8-4[8:1],7,8,,
{1}3h[4:3]/A7/B7f/E7/E8,5h[4:3]/A1/B1f/E1/E2,7h[4:3]/A3/B3f/E3/E4,{2}1h[4:3]/A5/B5f/E5/E6,8x-6b[8:1],
{8}4/5,5,4/5,4,5/6,7,4/3,2,2/8,3,4/5,6,1/7,2,3/8,7,
{16}1,7,1,7,1,7,1,7,{32}1,2,3,4,5,6,7,8,1,2,3,4,5,6,7,8,{4}1h[2:1]/E7,C,E3,1-5[8:1],
{16}1-3[8:1]/7,,7,,1-5[8:1],8,,8,1>4[8:1],,7,,1-5[8:1]/7,,8,,
{16}1-3[8:1]/7,,7,,1-5[8:1],8,,8,1/7-4[8:1],,8,,1/7<5[8:1],,8,,
{16}7-3[8:1]/1,,2,,7-5[8:1],1,,1,7q3[8:1],,2,,7-5[8:1]/2,,1,,
{16}7/1h[4:1],,,,,,7,6,{8}5/3,4/7,1-5[8:1]/5,3/8,
{16}1>3[8:1]/7,,6,,1-5[8:1]/8,8,,7,7/1-3<4[8:1],,7,,1-5[8:1]/7,,8,,
{16}1>3[8:1]/7,,6,,1v4[8:1]/7,7,,6,6<1[8:1]/1,,7,,6/2>5[8:1],,3,,
{16}2-6[8:1]/8,,8,,2>4[8:1]/7,,7,,2/8,,8,7,6/2,,6/2,,
{8}3xh[8:2]/5xh[8:1],,,4xh[8:1]/6xh[8:2],,,4xh[8:1]/5xh[8:1],,
{8}1b-5[8:1]/8b-4[8:1],2b/7b,8b/1b>4[8:1],,1b<6[8:1]/7,8,1b-4[8:1]/3,2,
{8}1b-6[8:1]/7,8,1b/3,2,{16}1bx/7b,1b/7bx,,2bx/8b,2b/8bxv3[8:1],,1bxh,,
{8}8bv5[8:1]/6,7,8b>3[8:1]/2,1,8b<5[8:1]/6,7,8b-4[8:1]/2,1,
{16}8b,,7bx,7bx,1b/6bx,,3bx/8b,,2b/5bx,,4bxh[8:1]/7bh[8:1],,,,,,
{8}1b-7[8:1]/5,7,1b-4[8:1]/5,3,1b-6[8:1]/5,7,1b>4[8:1]/5,3bx,
{8}1b<6[8:1]/5,7,1b/5,4,{16}3b/5b,3b/5b,,4b/6b,4b/6b,,5b,,
{4}7bh[4:1],{24}1,2,3,4,,,{4}2bh[4:1],{24}8>8[2:1],7,6,5,,,
{4}8bx,4x-2-5-8-6b[2:1],,,2x<3v6[2:7]/A6f,,,,{1},,,
{4}1-5[8:1],2-6[8:1],3-7[8:1],4-8[8:1],
{2}1>4[8:1]*<6[8:1],5qq3[8:1]*pp7[8:1],
{4}5-1[8:1],6-2[8:1],7-3[8:1],8-4[8:1],
{2}5v2[8:1]*v8[8:1],1V35[8:1]*V75[8:1],
{4}1-5[8:1],2-6[8:1],3-7[8:1],4-8[8:1],
{8}1-4[8:1]*-6[9:1],1,1,,5w1[8:1],5,5,,
{4}5-1[8:1],6-2[8:1],7-3[8:1],8-4[8:1],
{8}7xp4[8:5],7x,,,2-5[8:1],,2,,
{16}5/3h[8:1],,,6,6/2h[8:1],,5,,5/3h[8:1],,,6,6/2h[8:1],,5,,
{16}5/3h[8:1],,,6,6/2h[8:1],,5,,1>4[8:1]/5,,2,,1/7h[8:1],,,,
{16}4/6h[8:1],,,3,3/7h[8:1],,4,,4/6h[8:1],,,3,3/7h[8:1],,4,,
{16}4/6h[8:1],,,3,3-1[8:1]/7h[8:1],,4,,3/6-8[8:1],,5,,3/6,,4,,
{16}1/2-5[8:1],,,8,8/2,,7,,7-4[8:1]/8,,,1,1/7,,2,,1/2-5[8:1],,,8,8/2,,7,,8-4[8:1]/2,,7,,6/8,,5,,
{16}6/5<8[8:1],,,4,4/5,,3,,3/4>1[8:1],,,5,4/5,,6,,
{8}7-3[8:1],3-7[8:1],7,,1-5[8:1],,1,,
{32}1b/8b,2/7,3/6,5h[32:21]/4h[32:21],,,,,{4},,,
{32}2b/1b,3/8,4/7,5h[32:21]/6h[32:21],,,,,{4},,,
{32}1b/5b,2/6,3/7,4h[32:21]/8h[32:21],,,,,{4},,,
{32}4b/8b,3/7,2/6,1h[32:5]/5h[32:21],,,,,{4},1x-3b[8:1],,
{8}4b/6,7,3/5b,2,4b/6,8,3/5b,2/6b,
{8}1/7b,2,2b/8,7,1/7b,3,2/8b,3/7b,
{8}4/8b,4b/8,3/7b,3b/7,2/6b,2b/6,1/5b,1b/5,
{8}4b/8,4/8b,4b/8,4/8b,{32}8,7,6,5,4,3,2,1,{4}8b/6b,
{4}1h,1h,1h,1h,{8}1-3[8:1],5-7[8:1],1-5[8:1],5w1[8:1],,,A8/D1/A1f/D2/A2,,
{4}1xV35[4:1],5V31[4:1],1V75[4:1],5V71[4:1],1V37[4:1],7V52[4:1],2p2[4:1],C,
{4}8V64[4:1],4V26[4:1],6v1[4:1],1V35[4:1],5V73[4:1],3V14[4:1],4p4[4:1],C,
{4}2q8[4:1],8q5[4:1],5p7[4:1],7p1[4:1],1p4[4:1],4p7[4:1],7q1[4:1],C,
{4}7q5[4:1],5pp4[4:1],4>5[4:1],C,{8}1,2,3,8,7,6,{16}1,8,1,8,
{4}1<5[4:1],5p7[4:1],7V13[4:1],3V51[4:1],1V36[4:1],6p2[4:1],2qq5[4:1],C,
{4}6p1[4:1],1V74[4:1],4qq5[4:1],5>1[4:1],1q6[4:1],6V84[4:1],4q6[4:1],C,
{8}1,2,3,1,2,3,1,2,8,7,6,8,7,6,8,7,
{16}2,8,2,8,2,8,2,8,{32}2,3,4,5,6,7,8,1,2/7,6,5,4,3,2,1,8,{4}7h[4:2]/2,2,2,1b/5b-7[8:1],
{32}5-3[8:1]/1,2,3,4,,,,,5/1-3[8:1],8,7,6,,,,,5/1-7[8:1],6,7,8,,,,,5/1q5[8:1],4,3,2,,,,,
{32}1p5[8:1]/5,6,7,8,,,,,1/5,4,3,2,,,,,8h[8:1]/2,3,4,5,,,,,1h[8:1]/7,6,5,4,,,,,
{32}5>2[8:1]/1,2,3,4,,,,,5q1[8:1]/1,8,7,6,,,,,5-2[8:1]/1,2,3,4,,,,,5/1>4[8:1],8,7,6,,,,,
{32}4-1[8:1]/1,5,6,7,,,,,8,7,6,5,,,,,{8}3/8,1/6,4/7,2/5,
{32}8v3[8:1]/1,,,,,,,,8v5[8:1],7,6,5,,,,,8,1,2,3,,,,,8,1/7,2/6,3/5,,,,,
{32}1p5[8:1]/8,,,,,,,,1q5[8:1],2,3,4,,,,,1,8,7,6,,,,,1,2/8,3/7,4/6,,,,,
{8}1bw5[8:1],,1,,8bw4[8:1],8,8,,{4}1x-5b[8:1],2b-6[8:1]*-6[8:1],3-7[8:1],3b,
{8}1-5[8:1]/8-4[8:1],2/7,1-6[8:1]/8,,1/7-4[8:1],8,7/1-6[8:1],8,
{8}1/5-2[8:1],6,5/8-3[8:1],1,8/6,7,{16}2b/8b,2b/8b,,1b/7b,
{8}1b/7b-3[8:1],,7/4-8[8:1],5,4/6-1[8:1],7,6/2-5[8:1],3,2/7-3[8:1],8,7/1-5[8:1],8-6[8:1],1-3[8:1],8-4[8:1],1,8,
{8}1x-5[8:1],1x,2-6[8:1],2,3-7[8:1],3,4-8[8:1],4,1-6[8:1],2-5[8:1],1,2,8-4[8:1],1/7,8,,
{8}5-1[8:1],5,6-2[8:1],6,7-3[8:1],7,8-4[8:1],8,
{4}1x>1[4:1],5x-7-4-1-3b[2:1],,,A3f/2x<3v6[1:3],
