&title=愛言葉V feat. 初音ミク
&artist=DECO*27
&first=0.26
&des=IsxI
&lv_5=13
&inote_5=(139){4},,,,,,,,4pp4qq4[4:3],,,,{16}6,,4,5,,,36,,5x-2[8:1]*-8[8:1],,,,5b,,,,
{8}6h[4:1],7,5h[4:1],8,4h[4:1],1,3h[4:1],2,4h[4:1],1,5h[4:1],8,6h[4:1],7,5,47,
3h[4:1],2,4h[4:1],1,5h[4:1],8,6h[4:1],7,5h[4:1],8,4h[4:1],1,3h[4:1],2,4,52,6h[4:1],4,3h[4:1],5,7h[4:1],5,2h[4:1],4,5h[4:1],8,3h[4:1],1,6h[4:1],8,4h[8:1],1,5,46,3,25,6,17,2,3b-6[8:3]/6b,,,,,,2x,7x,,7-2[4:1],,,8,,1,1,2,3,4,5,6,6,,47,,6-3[4:1],,,5,,4,4,3,3,2,1,8,8,,17,,2-7[4:1],,,1,,8,7,6,5,5,4,4,3,,5-8[8:1]/4,,1,,A7/E7/B7/A2/B2/E3,,3,4,5,
{16}6,5,6h[16:3],,,5h[16:3],,,4h[16:3],,,3,4,,2x,,6,4,5-8[4:2],,,,3,,,,2,,,,{4}1pp5[4:3],8,7,6,6-8[8:1],1,27,{8}6,5,46,3,6,3,46,5,6-3[8:1],,{16}2,,2>8[8:4],,,,6,,7,,8,,8,,1,1,,,6/1<3[8:4],,,,4,,3,,2,,1,,8,8,,,5/1-5[8:1],,,,{8}7,7,3,6-8[10:1],4-2[10:1],6,4,,8,17,26,3/5-8[8:1]*q1[8:1],,5,,
{16}27,,3,4,3,,6,4,5h[8:1],,3,3,5,2,6,1,7,8,7,8,7-4[8:1],,16,,78,,,,8,1,2,3,6,4,6,4,5,3,5,3,5,4,6,3,5,4,6,3,5-7[8:1],4,5-2[8:1],4,5-8[8:1],,,,,,,,
1,,8/1pp7[8:3],,,,8,,7,,6,,5-8[8:1],,8,8,,,1,,,,27,,36,,45,4-2[16:2]*-6[16:2]/5,,,,,,,,,1b-5[8:3]/7b,,,,7,,6,,5,,4,,3,,2h[4:1]/4x-8[8:1],,,,,,,,7h[8:3]/1,,,,{24}E6,E5,E4,E3f,
,,,,,{16}1b-5[8:1]/2,,8,,17,,6,4,6,,7,,46,,3,,1-5[8:1]/2,,8,,17,,6,4,6,,3b,,1b/8b,,,,1-5[8:1]/2,,8,,17,,6,4,6,,3,,45,,6,,45,,3,,21,,2-7[8:1]/1,,,,7x,,,,8,,1,4,3,4,2,,18,,7,5,6,4,7,,58,,2,5,4,6,3,3h[8:1],,1b,,,2^5[8:1],,4,,2,,7-4[8:1],,6,,7-1[8:1],,2,,7,,4pp4[10:3]*qq4[10:3],,35,,4b,,,,,,,,2xV48[6:1]/6x,,,,5,,1,,,,
8b^3[8:1]/7,,1,,28,,4,4,5,,3,,45,,6,,8^3[8:1]/7,,1,,28,,4,4,5,,1b/2b,,3b/6b,,,,8^3[8:1]/7,,1,,28,,4,4,5,,6,,45,,3,,12,,8,,17,,7-2[8:1]/1,,,,8x,,,,1,,2,4,3,4,2,,18,,7,5,6,5,7,,18,,2,2,4,3,6,6h[8:1],,8b,,,1^4[8:1],,4,,1,,6-1[8:1],,5,,6-3[8:1],,2,,6,,1,,8,,2-5V31<6[8:5]/7xh[8:7],,,,,,,,,,,,,,,,,,2h[8:2]/B3f,,,,,,7h[8:2]/B5f,,,,,,1h[32:11]/Cf,,,,,{32},B8,{8}A8,A2,A7,A3,6,5,4,3h[8:2],,5,5,4,4,6,6,8h[8:1],,17,17,,3,4,5,6h[8:2],,3,3,5,4,6,6,2h[8:1],,13,13,,6,5,4,3h[8:2],,6,6,4,4,5,5,2h[8:1],4,1,1,,3,4,5,6h[8:2],,3,3,5,5,4,4,6h[8:1],5,47,4x/7xh[8:5],,,Cf,,
{16}1,,2,4,3,,7,5,6,,2,,43,,6,5,7,,1,7,8-3[8:1]*-5[8:1],,17,,,,,,4,6,5,6,4x,5,4,5,3x,4,3,4,2x,3,2,3,2,3,2,3,2,3,2,3,2-7[8:1],,1,,1x,,,,6,,5x/7xV58-4[8:3],,,,4,,3,,3,,2,,1,1,,,3x/8xV27-3[8:3],,,,4,,5,,6,6,,,,,4/5-8[8:1],,,,2xh[8:10],,,,1,,1,,,,1,,8,,7h[8:3],,,,,,,,,,5/4-1[8:1],,,,3/4b>5[8:13],,,,B6/B7/E7f,,,,,,,,,,,,,,,,,,,,,,,,,,,,,,,,{4}3xh[8:4],,,,1xh[8:4]/8xh[8:4],,,,1xh[8:4]/2xh[8:4],,,,4xh[8:4]/5xh[8:4],,,,6xqq5[8:3]*pp7[8:3],,,,2xqq1>4[8:4],,,,5-8>5[8:10]/6,6,6,6,7,7,{8}8x,8x,,,3/7-3>4[8:10],,3,,4,,4,,3,,2,,1x,1x,,1x,2x/1x<4[8:4],,2,,3,,2,,1<5[8:2],,5>1[8:2],,1,,8,,3,3,6,6,2,2,7,7,{16}1,8,1,8,1,8,1,8,2b,,7b,,,,,,36,,4,5,,,5x/6xh[8:3],,,,{32}A7,A8,A1,A2,A3f,,,,,,,,
{16}2b^5[8:1]/8,,14,,28,,7,6x,7h[8:1],,8,,7h[8:1]/1,,2,,2^5[8:1]/8,,14,,28,,7,6x,7,,B1/B8/E1,,E3/E4/E5/E6/E7/B3/B4/B5/B6,,,,2^5[8:1]/8,,14,,28,,7,6x,7h[8:1],,8,,7h[8:1]/1,,2,,7h[8:1]/3-8[8:1],,4-7[8:1],,3,,4,,,,1b,,,,28,,3,4,3,4,2,,12,,6,5,6,5,7,,87,,2,1,3,5,8,8,,1b/7b,,,2v5[8:1],,4,,2,,6<3[8:2],,4,,3>5[8:2],,4,,
5pp1[8:3],,4,,3,,2h[8:4],,,,,,,,8b,,,,{24}8,7,6,54,,,2,,,
{16}7b^4[8:1]/3,,15,,73,,2,3x,2h[8:1],,1,,2h[8:1]/8,,7,,7^4[8:1]/3,,15,,73,,2,2,3x-8[8:1]*-1[8:1],,24,,3x,,,,7^4[8:1]/3,,15,,73,,2,3x,2h[8:1],,1,,2h[8:1]/8,,7,,2h[8:1]/6-1[8:1],,5-2[8:1],,6,,5,,,,8b,,,,71,,6,4,6,5,7,,87,,3,5,3,4,2,,12,,7,8,6,4,1,1,,8b/2b,,,7v4[8:1],,5,,7,,3>6[8:2],,5,,6<4[8:2],,5,,4,,5,,6,,7xh[8:5]/6x<5[8:3],,,,,,,,,,,,,,1x-3[8:1]/8x-4[8:1],,,,8b-6[8:1]/1b-5[8:1],,,,1-3[8:1]/8-4[8:1],,,,18,,,,56,,4,,34,,3/4pp4[6:1]*qq4[6:1],,,,,,,,,,2-6[8:1],,2,,8-5[8:1],,8,,1-5[8:1],,1,,6,,7,,8qq4[8:3],,,,8/3v1[8:1],,,,3,,,,2-5[8:1],,6-4[8:1],,2,,,,5xh[16:3],,,,{8}
5h[8:1]/1,8,5h[8:1]/1,8,5h[8:1]/1,8,5h[8:1]/2-6[8:1],,4,,7-5[8:1],4-8[8:1],7,4,5xh[8:8],6,6,6,4,6,4,6,2-4[8:1],,5-1[8:1],,8-6[8:1],,7b,,1x,,3b/4b^7[8:1],1^4[8:1],4-8[8:1],,,,7-1[8:1],1,7-4[8:1],5,7,1,26,,{16}35,,2,1,2,,7,8,7,,1,,3^6[8:1]/6^1[8:1],,2,,3/6-2[8:1],,,,8,,,,1/3-8[8:1],,,,7,,,,5V71[6:1]/6,,,,1,,2-4[8:1]*-5[8:1],,,,2-8[8:1]*-7[8:1],,,,2w6[8:1],,,,2x,,,,,,8/3>5[4:1],,,,6,,,,4-8[8:1]*-8[8:1],,,,1b,,,,2^5[8:1],,,1,2,,8,,7-1[8:1]/6-4[8:1],,,,,,,,23,,12,,18,,7bh[24:27]/8bh[24:26],,,,,,,,,,,,,,,,,,,,{8}1,6,2,5,4,3x,1b-4[8:14]/8b-5[8:21],,,,,,,,,,,,,,,,,,3,,2,,1,,{24}6x,7x,8x,{8}2,1,3,8,4,6,5,5h[8:1]/4h[8:1],
