&title=Zauberkugel
&artist=xi
&first=0.01
&des=Magician
&lv_5=14
&lv_6=12+
&inote_5=(153.5)
{1},
{16},,,,
,,,,
,,7-2[12:1],,
1b,,,,
{16}3q6[2:3],,,,
,,,,
,,,,
,,,,
{16},,,,
,,,,
,,,,
,,,,
{16}5,,6h[8:5],,
,,,,
4,,,,
3,4,5-8[8:5],,
{16},,,,
,,,,
1,,,,
1h[4:1],,,,
{16}8,,2,8,
2,8,{24}2,8,2,8,2,8z4[16:6],2s6[16:5],,,,,,,,,
{16},,,,
,,7/3,,
,,2,4,
3,5,4,6,
{16}5h[16:3],,,8,
8,,,,
4,,35,,
2h[8:2]/4,,,,
{16}1,8,,,
5,,46,,
5/7h[16:3],,,8,
1,,,,
{16}4,,5/3,,
1h[8:2]/4,,,,
8,7,,,
5,,4/6,,
{16}5/8h[16:3],,,1,
2,,,,
4,,3/6,,
1h[4:1]/4,,,,
{16}8,7,6,5,
4/3,,3/4,,
1/2,,,,
5h[1:0]/6h[1:0],,5h[1:0]/6h[1:0],,
{16}7h[1:0]/8h[1:0],,{24}1,2,3,
{16}4q1[4:1]/5p8[4:1],,,,
,,,,
,,,,
{16}4/2,{32}4/2,,{16},,
,,7/5,{32}7/5,,
{16},,,,
{32}27,36,{16}54,,,
{16}2,4,8,6,
5,7,3,1,
2q5[4:1],,4/8,,
2b/6,,,,
{16},,4/7,,
3/6,,2/5,,
4h[8:1]/1,,3,4,
2,,6,4,
{16}7,,3,4,
2,,8,,
7,7h[8:1],,5,
8,,1/6,,
{16}3,,4/2,,
1,
,8/2,,
2h[8:1],,8,5,
6,,2,5,
{16}4,,{24}7,6,5,
{16}3/4,,1,,
2/8<5[12:1],,,8>5[16:2],
,,8,,
{16},,,,
8/4,,7,,
2/6,,4,4,
,5/2,,4/6,
{16},7,8,5h[8:1]/1h[8:1],
,,3/7,,
,,{32}4,5,4,,
{16}6<1[8:1],,5/3,,
{16}6/4,,,,
{24}5,6,7,8,1,2,
{16}3h[4:1],,1,,
1,8,7,6,
{16}1,1,,3>8[8:1]/7<4[8:1],
,8/4,,3/7q3[8:1],
,,,,
6bw2[8:1],,,,
{16}6pp3[8:7],,,,
,,,,
2s6[8:3],,,,
,,,,
{16},,,,
7/5,,,,
2,2h[8:1],,4,
1,,3/8,,
{16}7,,6/4,,
3-8[12:1]/5,,2,,
6-3[16:1],,,1-6[16:1],
,,4h[16:3],,
{16},8,5,1,
6,2,
7,3,
8-5[16:1],,,3-8[16:1],
,,6,,
{16}7-4[16:1],
,,7/1,
,,1,,
25,36,47,,
{16}5-2[16:1],,,5/6,
,,6,,
36,47,58,,
{16}1-6[16:1],,,1pp8[8:2]/2,
,,2,,
7,,6,,
{16}5,,{24}4,2,4,
{16}2,,1,,
5/7,,8,,
{16}2-5[16:1]/1,,,2/8,
,,8,,
74,63,52,,
{16}4-7[16:1],,,4/3,
,,3,,
63,52,41,,
{16}8-3[16:1],,,8qq1[8:2]/7,
,,7,,
2,,3,,
{16}4,,{24}5,7,5,
{16}7,,8,,
1,2,3,4,
{16}7-1[12:1]/5,,,5,
7,,3-8[8:1],,
7,6,5,,
{16}6-4[12:1],,,8,
6,,2-5[8:1],,
6,7,8,,
{16}7-4[8:1],,,5,
7,,3,,
3/6,,2/5,,
1/4,,{24}5,6,7,
{12}4,4,4,
{16}3-5[12:1]/5,,,1,
3,,7-4[8:1],,
1,2,3,,
{16}2-8[12:1],,,4,
2,,6-1[8:1],,
2,3,4,,
{16}3,,2-5[12:1],2,
,6,6,,
7-2[12:1],7,,5,
{16}5,,4-7[12:1],4,
,8,8,,
1-6[12:1],1,,3,
3pp8[4:4],,2b,,
{16}1<1[4:3],,,,
,,,,
,,,,
,,,,
{16},,,,
,,6h[4:1],,
,,5h[4:1],,
,,4h[16:5],,
{16},,,,
,,,,
,,3,4,
5,4,3,,
{16},,2h[4:1],,
,,4h[4:1],,
,,6h[4:1],,
,,8h[8:4],,
{16},,,,
,,,,
,,2q5[2:1],,
{32},,,,{16},,
{16},,,,
,8,8,,
,,,,
3>8[8:1],,6<8[8:1],,
{16},,,,
,,4<8[6:1]*>1[6:1],,
,,,,
,,,,
{16}6,7,{32}8/1,2,3,4,
{32}5,6,7,8,1,2,3,4,
5,6,7,8,1qq4[16:5],2,3,4,
5,6,7,8,,,,,
{16},,,7,
7h[16:2],,5,,
1/2,,3/7,,
{24}6,5,6,{16}4,,
{16}2/6,,4,3,
5,,{24}6,7,8h[48:8],
{16}5,,{24}3,2,1h[6:1],
{16}4,,{24}5,6,7h[6:1],
{16}3,,5,6,
4,,,1,
28,,7/4,,
5/6,,3,4,
{16}25,,3/4,,
{12}6,6,7h[48:10]/5,
{16},3,3,4,
2/5,,1>6[8:2]/7,,
{16}1h[8:4],,,,
,,,,
7h[8:1],,,8h[8:1]/2h[8:1],
,,3v6[6:1]*V17[6:1]/1,,
{16},,,,
,,,,
7h[8:1]/5h[8:1],,,6h[8:1]/4h[8:1],
,,3q2[4:1]/5V72[4:1],,
{16},,,,
,,,,
3h[8:1]/4h[8:1],,,1h[8:1]/8h[8:1],
,,5/6,,
{16}3/8,3/8,,,
,,6/1,6/1,
,,,,
{32}2/7,6/3,45,,,,,,
{16}8/2,,1,1,
1,1,,
,
8,8,8,8,
,1,1,1,
{16}1,18,,{8}1/7,6/1,5/1,{32}4/1,3,2,1,8,7,6b<1[16:2],,,,,,,,
{16}3qq7[8:7]/6V41[8:7],,,,
,,,,
,,,,
,,,,
{16},,,,
,,,,
2/1,2/1,,4/8,
,,7/1,,
{16}5,,3/5,,
8,
,6/8,,
7h[8:1],,1,4,
3,,7,4,
{16}5,,{24}2,3,4,
{16}6/5,,8,,
7/1>4[12:1],,,1<4[16:2],
,,1,,
{16},,,,
1/5,,2,,
7/3,,5/6,6/5,
,4/7,,5/3,
{16},2,1,4h[8:1]/8h[8:1],
,,6/2,,
,,{32}5,4,5,,
{16}3>8[8:1],,4/6,,
{16}3/5,,,,
{24}4,3,2,1,8,7,
{16}6h[4:1],,8,,
8,1,2,3,
{16}8,8,,6<1[8:1]/2>5[8:1],
,1/5,,6/2p5[8:1],
,,,,
4b-8[12:1],,,,
{16},,5,,
6/2,,7/3,,
4h[8:1]/8,,6,4,
8,,3,5,
{16}1,,6,4,
8,,2,,
7/8,7/8,,5/1,
,,8/2,,
{16}4,,4/6,,
1,
,1/3,,
2h[8:1],,8,4,
6,,1,5,
{16}3,,{24}7,5,7,
{16}5,,8,,
{32}7/1,6,5,,,,2/1,3,
4,,,,7/1,6/2,5/3,4,
{16},,,,
8/1,,7,,
2/6,,1/5,5/1,
,4/2,,4/5,
{16},7,6,{32}5/4,3,
2,1,8,7,{16}6h[16:4],,
,,1,,
8<5[8:1]/4>1[8:1],,5/1,,
{16}8/4,,,,
{24}2,3,4,5,6,7,
{16}8h[4:1],,5,,
5,6,7,8,
{16}1/5,1/5,,3>8[8:1]/7<4[8:1],
,8/4,,3/7q4[8:1],
,,,,
6bw2[8:1],,,,
{16}6pp2[8:8],,,,
,,,,
3,5,3,5,
{24}3,5,3,5,3,5,
{16}3,,,,
,,
,,
7/8,7/8,,5/1,
,,2-5[8:1]/8,,
{16}6-1[8:1]/4,,2/8,,
6,,2,,
{32}8/1,2,3,,,,7/8,6,
5,,,,{16}1/2,,
{16}7,5,8,1,
4,2,6,3,
{32}7/4,8,1,,,,6/2qq6[4:8],3,
4,,,,{32}3/7b,6,5qq6[4:7],
E
&inote_6=(153.5)
{1},
{8},,,,,
2-7[12:1],8b,,5pp1[8:9]*pp2[8:9],,,,,,,,,,,,6/3q5[1:1],,,,,,,,,,,,7h[8:3]/3h[8:3],,,,26,,1h[8:3]/5h[8:3],,,,26,,7h[8:3]/3h[8:3],,,,8-4[8:1]/4,,{16}83,,{32}2h[4:1],,,,4,,,,6h[8:1],,,,{8}5-8[8:1],,65,,7h[4:1],8,1-4[8:1],,21,,3h[4:1],4,5-1[8:1],,65,,7h[4:1],8,1-5[8:1],,21,,3h[4:1],4,5-2[8:1],,65,,7h[4:1],8,1-6[8:1],,21,,3h[4:1],4,5-1[8:1],,2-5[12:1],2,7-4[8:1],7,{16}1,,1,,1,5,1,5,2,6,3,7,4,,,,
{24}
74,36,52,41,,,,,,
25,63,47,58,,,,,,
74,36,52,41,,,
{16}
2,4,3,5,4,6,5,7,6-3[8:1],,,,8b,,,,
7h[8:1],,5h[8:1],,6h[8:1],,4h[8:1],,
5h[8:1],,3>6[8:3],4,,,2h[16:6],,,,,,,,,,
1,7,,5h[16:3],,,2<4[8:3],,,,
4,,3,,2,,
1h[16:6],,,3,,,
{48}
8h[48:17],,,,,,,,,,
5,,4,,3,,2,,,,,,,,
{16}
7,,1b-5[12:1],,,7b-3[12:1],,,4bs8[4:1]*z8[4:1],,,,,,,,,,
26,,3,5,,2,,1h[48:13]/7,,
{48}
4,,5,,6,,7,,,
{16},,
3h[4:1],,,,
7h[4:1],,5,,3h[4:1],,
5,6,7,8,
{24}
4,5,6,7-3[8:1],8,1,2<4[4:1],,,
7,,,2,,,,,,
{16}
8,8,,
24,,57,,28,,,
3h[8:6],,8,,7,,6h[8:4],,,,,,,,
3,3,6,6,4pp1[8:5],4,7,7,5h[2:1],,,,,,,,,,4h[4:1],,,,
8,,
,,65,,23,,17,,
2h[8:1]/4h[8:1],,,6h[8:1]/5h[8:1],,,28,,
1,7,5,6,2,4,1,,
{32}
8b/7b,6,5,,,,1b/8b,2,3,,,,
7,,,,
{16}
4h[8:1]/6h[8:1],,,3h[16:7]/5,,,5,4,5,6,7,,
5h[8:1]/3h[8:1],,,6h[16:7]/4,,,4,5,4,3,2,,
1h[8:1]/7h[8:1],,,3h[8:1]/5h[8:1],,,
2,,35,,46,,
78,,18,,12,,
34,,45,,56,,
1h[8:1]/7h[8:1],,,2h[16:7]/8,,,8,1,8,7,6,,8h[8:1]/2h[8:1],,,7h[16:7]/1,,,1,8,1,2,3,,4h[8:1]/6h[8:1],,,2h[8:1]/8h[8:1],,,
6,,71,,82,,34,,54,,56,,17,,62,,53,,
2^5[8:1]/6,,,7,2,,8,1,8,7,6,,
1^4[8:1]/6,,,6,1,,7,8,7,6,5,,
8^3[8:1]/5,,,5,8,,6,7,6,5,4,,
1,,2,,
{24}
38,,47,,56,,
{16}
7^4[8:1]/4,,,2,7,,1,8,1,2,3,,
8^5[8:1]/3,,,3,8,,2,1,2,3,4,,
7h[8:1]/6h[8:1],,,2h[8:1]/4h[8:1],,,5h[8:1]/6h[8:1],,,1h[8:1]/3h[8:1],,,5h[8:1]/4h[8:1],,,6h[8:1]/8h[8:1],,,2h[8:1]/4h[8:1],,,3h[8:1]/7h[8:1],,,2-5[8:1]/6-1[8:1],,15,,2bqq3[8:16]/6bqq7[8:16],,
,,,,,,,,,,,,,,,,,,,,,,,,,,,,,,,,,,,,,,,,,,,,,,
,,1,,,,2,,,,3,,,,4h[8:4],,,,,,,,5h[8:2],,,,3h[4:1],,8,7,6h[8:4],,,,
2,,3,,4h[4:2],,,,
7,,6,,5,,
4,5,4,5,3,6,3,6,2,7,2,7,1,8,1,8,
{24}
1,8,1,8,1,8,1,8,1,8,1,8,1,8,1,8,1,8,1,8,1,8,1,8,
{16}
1b-5[8:1],,,,7-4[8:1],,8,,2,,1,,
2,4,3,5,
4-8[8:1],,,,6-1[8:1],,5,,2,,3,,
2,8,1,7,
8h[4:1],,
{24}
7,6,5,4,,,
2,,,18,,,
2,3,4,56,,,71,,,
{16}
6h[8:1],,5h[8:1],,
6,8,,
17,,
2,6,3,5,1,,,
2h[8:1]/8h[8:1],,,3h[8:1]/7h[8:1],,,4/6,,5q4[8:5],,,,,,,,,,,,,,,,
3/6<3[8:5],,,,,,,,,,,,,,,,
4h[8:1]/7h[8:1],,,3h[8:1]/5h[8:1],,,14,,
{24}
25,36,47,58,,,,,,74,63,52,41,,,,,,
18,27,36,45,,,,,,
{16}
2,4,3,4h[16:3],,,7,5,6,5h[16:2],,6,5,7h[16:3],
1,,1,,1/5h[4:1],,1,,1,,1,5h[16:4],1,,1,,
{32}
2b/6bpp3[8:9]*s2[8:9],37,48,51,26,,,,,,,,,,,,,,,,,,,,,,,,,,,,
{16},,,,,,,,
1,7,,5h[16:3],,,2<4[8:3],,,,
4,,3,,2,,
1h[16:6],,,2^5[12:1],,,8h[16:3],,,,
{24}
7,6,5,
{16}
43,,1,,2b-6[12:1],,,7b-3[12:1],,,5bw1[4:1],,,,,,,,,,
46,,3,7,,2,,1/8h[16:3],,
{48}
2,,3,,4pp4[4:1],,56,,,
{16}
,,8h[4:1],,,,,,
6,,12,,
8,7,6,5h[4:1],
{24}
6,7,8,1-5[8:1],2,3,4>6[4:1],,,1,,,4,,,,,,
{16}
5,5,,68,,34,,1V75[4:1]/2V84[4:1],,,,,,,,,
,,7^2[8:1],,4,,7,,5,5,
1,1,3,3,7,7,1s5[8:1],,,,8,,,,
7,5h[16:2],,8-4[12:1],,,3b,,,,2,,35,,46,,
7/8,,1,8,1,,28,,
{32}
3,4,5,6,7,8,1,2,3h[8:3]/7h[8:1],,,,,,,6b,5,4h[16:5],,,,,2b,1,8h[16:1],,,,1bs5[4:1]/5b,26,37,48,15,,,,
{16},,
3,,1,,
26,,3,5,,2,,1b/7b,,
{32}
2,3,4,5,6,7,8,1,2,3,4>6[4:1]/5,,,,,,,,
{16}
7,,6,,5h[16:5],,
7,8,1,2,
{24}
6,7,8,1-5[8:1],2,3,4<3[4:1],,,1,,,4,,,,,,
{16}
4,4,,13,,7V58[16:5]/5,,18,,,
8-4[8:1],,1,,2>1[8:10],,3h[8:12],,,,,,,,,,,,,,,,,,,,,,,,,,8h[4:1],,,,4,,,,
13,,67,,34,,
1h[8:1]/6h[8:1],,,8h[8:1]/3h[8:1],,,46,,
3,4,2,6,5,7,1,,
{32}
2b/8b,3,4,,,,7b/1b,6,5,,,,
2b/6bpp3[8:16],37,48,15,26,,,,,,,,
