&title=3
&artist=2hollis
&first=3.25
&des=谱王梁非凡
&lv_5=14
&lv_6=3
&inote_5=(150){4}1>3-7<5-1-4-8-5[1:2],,,,,,,,{1}5>3-7<6-2<8-5[1:2],
,5-1<7-2-4<6-3>1[1:2],
,1<7-2>3-6>4-1[4:7],
{4},,,,7,
7,7,7,
7,7,7,7,
2,2,2,2,
2,2,2,2,
6/4,6/4,6/4,6/4,
6/4,6/4,6/4,6/4,
2-7-1-4-6-3>2[4:5],2,2,2,
2,2,1,{8}E8/B8/B1/E2/B2/C/B3/E4/B4/E6/B5,C,
{32}1b/8b-4[8:1],2,3,4,,,,,,,,,,,,,{16}4x,5,5,5,2,5,5,5,
4b,5,5,5,2,5,5,5,4x,5,5,5,2,5,5,5,
{32}4b/5b<8[8:1],3,2,1,,,,,,,,,,,,,{16}2x,1,1,1,3,1,1,1,
2b,1,1,1,4,1,1,1,8b/2b-6[16:1],,,2b/8b-4[16:1],,,{8}8b/2b,
{32}3b,2,1,8,,,,,{8}E5,E7,{16}1x,8,8,8,6,8,8,8,
1b,8,8,8,6,8,8,8,1x,8,8,8,6,8,8,8,
{32}7b/1b,6/2,5/3,4,,,,,{4}Ch[8:1],{16}3x,5,5,5,7,5,5,5,
3b,5,5,5,7,5,5,5,{4}2x-5[8:1],{8}E8,E6,
{32}5b,6/4,3/7,8/2,{8}1,{4}Cfh[4:1],{16}4x,4,3,5,4,4,2,6,
4b,4,3,5,4,4,2,6,4x,4,4,4,{32}B4,B3,B2,B1,B8,B7,B6,B5,
4bv6[8:1],3,2,1,,,,,,,,,,,,,{16}5x,5,4,6,5,5,3,7,
5b,5,4,6,5,5,3,7,4xh[2:1],C,{8}C,{16}C,C,,C,
{32}3bp5[8:1],2,1,8,,,,,,,,,,,,,{16}8x,8,1,7,8,8,2,6,
8b,8,1,7,8,8,2,6,8x,8,1,7,8,8,2,6,
C,7,,C,{8}7,{16}C,7,1x,1,2,8,1,1,3,7,
1b,1,2,8,1,1,3,7,{32}1x,2,3,4,5,6,7,8,1,2,3,4,,,,,{4}6h[1:2],
5,4,3,
,,,,{1}3h[4:5],
{8}7,6,5h[4:3],4,,4,{4}2,
2h[1:2],6,,5,
,,,,{1}Cfh[1:2],
{16},,,,,,,,,,,,,,,,2-4[8:1],
,,7,{8}2,7,{16}2-5[8:1],,,7,{8}2,7,
{16}2-6[8:1],,,8,{8}2,8,{16}2-7[8:1],,,8,{8}2,{16}8,1,
7-5[8:1],,,2,{8}7,2,{16}7-4[8:1],,,2,{8}7,2,
{16}7-3[8:1],,,1,{8}7,1,{16}7-2[8:1],,,1,{8}7,{16}1,8,
{8}7/2,1,7/3,1,7/4,1,7/5,1,
6/5,8,5/4,1,4/3,8,5/4,1,
{16}3,5,4,5,1,5,4,5,{12}2,2,2,6,6,6,
{24}E1,E2,{12}E3,5,{24}E2,E3,{12}E4,6,{24}E3,E4,{12}E5,7,{24}E4,E5,{12}E6,8,
{24},E2,C,E6,,,,,,,,,,E3,C,E7,,,,,,,,,,E1,
C,E5,,,,,,,,,,E4,C,E8,,,,,,A2/D3/E3/A3,,A2/D3/A3/E3,
,E8,C,E4,,,,,,,,,,E7,C,E3,,,,,,,,,,E1,
C,E5,,,,,,,,,,E6,C,E2,,,,,{12}A7/D7/E7/A6,D6,
{32}1b,2,3,4,,,,,B8,E8,B7,E7,B6,E6,,,2x,3,4,5,,,,,B8,E8,B7,E7,B6,E6,,,4b,
3,2,1,,,,,E6,B6,E7,B7,E8,B8,,,5x,4,3,2,,,E6,B6,E7,,,A2/E3/A3/D3,,,{16}A2/E3/A3/D3,
{32}8b,7,6,5,,,,,B1,E2,B2,E3,B3,E4,,,7x,6,5,4,,,,,B1,E2,B2,E3,B3,E4,,,5b,
6,7,8,,,,,E4,B3,E3,B2,E2,B1,,,4x,5,6,7,,,{16}C,{32},,,B3,,,{16}B1,
{32}1b,8/2,7/3,6/4,{8}5,3/5,1b,{16}6/4,4,{8}8b,{16}3/5,5,{8}1b,
{16}6/4,4,{8}8b,{16}3/5,5,{8}1b,{16}6/4,4,{8}8b,{12}3/5,1b,1b,
{4}Cfh[8:1],{16}6/4,6,{8}8b,{16}3/5,3,{8}1b,{16}6/4,6,{8}8b,
{16}3/5,3,{8}1b,{16}6/4,6,{8}8b,{16}3/5,3,{8}1b,{12}8,8,8,
{32}4b,3,2,1,8,7,6,5,{4}Ch[4:1],{16}8,8,8,8,8,8,8,8,
7,8,8x,8,6,8,8x,8,5,8,8x,8,4,8,8x,8,
{8}8h[8:1],{48}E4,B3,B2,E2,,,{16}5,1,1x,1,8,1,1x,1,4,1,1x,1,
8,1,1x,1,4,1,1x,1,8,2,{8}C,{16}2,C,,2,
{32}8b,7,6,5h[32:5],,,,,{8}1,1,8/1-5[8:1],2x,1/7p3[8:1],8x,
7/2-5[8:1],1x,2,{16}8x,8,7,1,1x,1,6,1,1x,1,
{32}8,7,6,5h[32:5],,,,,{16}3,1,1x,1,2,8,8x,8,1,7,7x,7,
{8}2h[8:1],6h[8:1],8h[8:1],4h[8:1],1h[8:1],5h[8:1],3h[8:1],7h[8:1],
{4}C,{16}4,5,5,5,4,5,5,5,4,5,5,5,
4,5,5,5,4,5,5,5,4,5,5,5,{4}Cf,
{16}3,8,8,8,3,1,1,1,3,8,8,8,3,1,1,1,
3,8,8,8,3,1,1,1,3,8,8,8,{8}1,C,
{16},C,,C,1,8,8,8,1,5,5,5,4,8,8,8,
1,5,5,5,4,8,8,8,1,5,5,5,4,8,8,8,
{8}2h[8:1],C,{16}3,4,4,5,3,5,4,4,3,4,4,5,
2,3,3,4,3,4,4,5,4,5,5,6,5,6,6,7,
C,8,8,8,2,1,1,1,8,1,1,1,2,1,1,1,
8,1,1,1,2,1,1,1,8,1,1,1,2,1,1,1,
{32}1b,2,3,4h[32:5],,,,,{16}8,8,7,8,8,1,1,1,7,1,1,1,
{8}7h[16:1],{16}1,1,2,1,1,1,3,8,8,8,2,1,1,1,
{32}1b,2,3,4h[32:5],,,,,{16}5,4,7,8,5,4,1,2,5,4,8,8,
5,4,1,1,5,4,7,7,5,4,2,2,4,4,8,8,
{32}8b,7,6,5h[32:5],,,,,{16}4,4,3,5,4,4,2,6,4,4,1,7,
8,8,1,7,8,8,2,6,{12}1b/5b,2b/6b,3b/7b,4b/8b,5b/1b,6b/2b,
{8}8h[1:8]/C,C,C,C,C,C,C,C,
C,C,C,C,C,C,C,C,
C,C,C,C,C,C,C,C,
C,C,C,C,C,C,C,C,
C,C,C,C,C,C,C,C,
C,C,C,C,C,C,C,C,
C,C,C,C,C,C,C,C,
C,C,C,C,C,C,C,C,
E
&inote_6=(150)
E
