&title=Teriqma
&artist=owl*tree
&first=-0.45
&des=墓
&des_5=墓
&lv_5=14
&inote_5=(128){4},{8},,,,,,5,
4,{16}6/3,,,4,,,{8}5/3,{4}4/6h[8:5],
{8},5,5,5,{24}4-7[12:1],5,{12}3h[6:1],,{4}4,
{8}2,3,{4}4/5h[2:1],6-1[8:1],6,
{8},7,{4}5h[8:1]/6h[8:1],3h[8:1]/4h[8:1],1pp4[6:1]/5pp1[6:1],
{24},,,,,,E8,,,,,3,{8}B7,1,{4}B6/2-4[12:1],
E6,{8}2/E8,2,B7,3,{4}B6,
{8}4/3,5/4,6/5-7[8:1],5,5/4-8[8:1],4,4/3,3,
2/3<8[4:1],1,{4}B2h[2:1],,1bp5[16:1],
1/2,{16}2/4,,,5,{8}4,2/8,{4}5/6h[4:1],
{8}4>1[8:1],2/8v5-7[16:3],4/5,8,4,1,{4}2b/4b,
{8}4/5,5/4,{16}7/5,,,5,{8}4,8/1,{4}5/6-4[12:1],
{8}6/2-8-4[16:3],8,6,7,{24}1<6[12:1],4x,{12}4x,,{4}1/2,
{8}4,3/7,{24}8/2-5-1[8:1],,,,,6,{8}2,8,{4}5h[4:1],
{8}3,2,1/4,6/3,8/5qq7[4:1],6/3,{4}5/2,
{8}2,2,{16}2/8h[4:1],,,5,{8}6-2-4[8:1],2/5,{4}6/1h[4:1],
{8}4,5,6/5>2[8:1],7,{24}8w4[8:1],7,6,5,,,{4}8,
7/2,{24}6-8[16:1],,,,,5,{8}5,1,{4}5-7[16:1],
{8}4/5,1,{24}4-6[16:1],,,,,3,{8}3,1,{4}3-5[16:1],
{8}2/3,1,{24}3-1[16:1],,,,,4,{8}4,8,{4}4-2[16:1],
{8}5/4,8,{24}5-3[16:1],,,,,6,{8}6,8,{4}6-4[16:1],
{8}7/6,8,7-5[16:1],8,1-5[16:1],8,6-1[16:1],7,
3-1[16:1],4,5-1[16:1],4,2-8[16:1],3,5-8[16:1],4,
3,2,{16}1/7,7,7,7,8,8,8,8,1,1,1,1,
2,2,2,2,{4}6<8[8:1]/3>1[8:1],{32},,,,,,,,8-5[16:1]/1-4[16:1],2/7,6/3,5/4,,,,,{4}8/1,
A6h[2:1]/2-4[8:1],B5h[4:1]/2-8[8:1],{24}2/B6f,,,,,2,
{8}2,5/4,6/A3h[2:1],7,8/B4h[4:1],7,{24}6h[24:5]/B3f,,,,,1,
{8}6,5/4,{4}A3h[2:1]/7-5[8:1],B4h[4:1]/7-1[8:1],{16}7/B3f,,,2,
{48},,,,{24}6,5,,,{8}7/A3h[2:1],8,1/B4h[4:1],8,{4}B3f/7p5[16:3],
{8}7,1,{16}A6h[2:1],,,2,{8}2/B5h[4:1],1,{4}3h[4:1]/B6f,
{8}4,4,{12}5/3,{24}4,2,,5,{12}3,{24}4,2,,5,{12}3-1[8:1],{24}4,2,,5,
{8}3,6,{4}7<4pp8[8:3],{8}2,1,{24}3,,,,,4,
{8}4,6/5,7/8,1/2,{24}7V52[8:1]/8V62[8:1],6,{12}5,,,,,{4}8/1,
3h[8:1]/A6h[2:1],1h[8:1]/B5h[4:1],2h[8:1]/B6f,
{12}3,{24}6h[6:1],5,,,{8}A3h[2:1],7h[12:1],B4h[4:1],6h[12:1],B3f/5pp4[8:1],5,
{4}1,6h[8:1]/A3h[2:1],8h[8:1]/B4h[4:1],{24}7h[8:1]/B3f,,,,,6,
{8}5,5/3,2/A6h[2:1],{24}2,3,4,{8}B5h[4:1],{24}3,2,1,{8}B6f/8>5[8:1],8,
{4}7,{8}4/A6h[2:1],{16}3,3,{8}B5h[4:1],{16}1,1,{8}B6f/2-4-1[8:1],3,
2,5,7/A3h[2:1],{24}6,,6,{8}B4h[4:1],{24}8,,8,{8}B3f/7V15[6:1],6,
{4}7/3h[4:1],{8}A6h[2:1],{24}2,3,4,{8}B5h[4:1],{24}1,2,3,{8}B6f/4V28[8:1],4,
7,7,6,{32}3,4,{16}3,{32}6,5,{16}6,{32}3,4,{16}3,{8}7,7/6,
{4}8b/5b,4/3qq8[4:1],5<7[16:1],5,
{8}1,2,{12}5/4,{24}6,5,,7,{12}8,{24}6,5,,8,{12}1-5[12:1],{24}6,5,,8,
{8}1b,6,{4}6pp8<6-1[4:1],6/2>5[12:1],2,
{8}4-7[12:1],5/4,{12}4/3,{24}1,8,,3,{12}4,{24}2,1,,4,{12}5>2[12:1],{24}1,8,,6,
{4}5b,5/3qq4[4:1],3/5-7[12:1],5,
{8}2,4,{12}6/5,{24}7,4,,6,{12}5-3[12:1],{24}7-1[12:1],4,,6,{4}5-1[12:1],
5,3/4pp7[4:1],1-3[12:1],1,
{8}7,5/4,3,2/1,4/5-1[12:1],4-2[12:1],{4}6-8[12:1],
{16},,,,3b,5,4,5,1b,4,3,4,2b,6,5,6,
1b,4,3,4,2b,5,5,5,1b,4,4,4,2b,6,4,5,
1b,4,3,5,2b,5,3,4,1b,1,1,1,8b,8,8,8,
8,8/1,1/8,8/1,{4}1h[4:1]/8h[4:1],{32},,,,,,,,8z4[12:1]/1s5b[12:1],2/7,6/3,5/4,,,,,{4}1/8,
{24}7/2-5-3[8:1],,,,,1,{8}2,8,{4}6-8-5[6:1],
{8}6/3,2,1V37[8:1],3/7-3[12:1],6-1[12:1],5,6,{24}2,3,4,
{8}5/8,7,{24}2/5-7-4[8:1],,,,,3,{8}5,1,2V48[8:1],8-3[12:1],
6/2,7,6<1[12:1],{24}1-5[12:1],2,3,{8}4-8[12:1],4,{4}4w8[8:1],
4,Ch[4:1]/E7h[2:1]/E3h[2:1],{24},,,,,,,,,,,1,
{8}8-6-1[8:1],6/1-5[12:1],8,2,3>6[8:1],8/1,{4}3,
{8}5<8[12:1],3/6,{24}5/2-5-3[8:1],,,,,1,{8}2,8<5[12:1],6/5-1[12:1],8,
3-8[12:1],2,3,{24}7-3[12:1],6,5,{8}4<2[6:1],7,{4}4,
4h[4:1],8<5[4:1],{8}2,4,1>4[4:1],{24}7,6,5,
{8}4,5,5<8[4:1],4,{24}1,2,3,4,,,{8}4>1[4:1],8,
8,7,6>3[4:1],{24}1,2,3,{8}4,3,2<7[4:1],6,
5,5,6,3/4,7/1,{24}2v5[8:1],3,4,{8}6/5V31[8:1],8,
{4}8h[4:1],{8}1-3[12:1],8/7-5[12:1],6/1-5[12:1],7/4,1,8<5[8:1],
5/3-7[12:1],8/2,3,4,{24}2pp1[6:1],4,3,5h[8:1],,,{8}2,6,
7,8,7/1,{24}4,5,3,{8}4h[8:1],2,1/2,8/1,
8/7,6/5,4/3>8[12:1],{24}6p4[4:1],5,6,{8}3,6,{4}C,
1,{24}3-1[16:1],,,,,4,{8}4,8,{4}4-2[16:1],
{8}5/4,8,{24}5-3[16:1],,,,,6,{8}6,8,{4}6-4[16:1],
{8}7/6,8,{24}6-8[16:1],,,,,5,{8}5,1,{4}5-7[16:1],
{8}4/5,1,{24}4-6[16:1],,,,,3,{8}3,1,{4}3-5[16:1],
{8}2/3,1,2-4[16:1],1,8-4[16:1],1,3-8[16:1],2,
6-8[16:1],5,4-8[16:1],5,7-1[16:1],6,4-1[16:1],5,
6,7,{16}8/2b,2,2,2,1b,1,1,1,8b,8,8,8,
7b,7,7,7,{4}2>4[12:1]/6<8[12:1],6V48[8:1]/2V84[8:1],6/2,
{1}2b/7b,
E
