&title=Qovat
&artist=owl*tree
&first=0
&des=rbhd
&clock_count=4
&lv_5=14+
&inote_5=(122){1},
{24}1b/8b,,2,4,,1,7,,2,4,,1,8,,3,4,,1h[6:1]/5,,,,,,,
1b/8b,,7,5,,8,2,,7,5,,8,1,,2,8,,3h[8:1]/6h[6:1],,,,,,,
1b/8b,,2,4,,1,7,,2,4,,1,8,,3,4,,1h[6:1]/5,,,,,,,
4b/5bp1[12:1],,,1,2,3,4bq8[12:1]/5b,,,8,7,6,4b/5bp1[12:1],,,1,2,3,4bq8[12:1]/5b,,,8,7,6,
5b/4b,,,2b/7b,,3,1,,2,5,,3,8,,2,4,,1h[6:1]/5,,,,,,,
2b/7b,,8,4,,6,8,,7,4,,6,1,,2,8,,3h[6:1]/6h[8:1],,,,,,,
2b/7b,,1,5,,3,1,,2,5,,3,8,,2,4,,1h[6:1]/5,,,,,,,
4/5,3,2,1,2,3,4/5,6,7,8,7,6,5/4,3,2,1,2,3,4/5,6,7,8,7,6,
4/5,,2b-6[12:1]/6b,,,,1,2,3,4,,,5/4,,7b-3[12:1]/3b,,,,8,7,6,5,,,
4/5,,2b-6[12:1]/6b,,,,1,2,3,4,,,5/4,,7b-3[12:1]/3b,,,,8,7,6,5,,,
5,4,5,3,6,3,7,2,7,1,8,1,{32}8,7,6,5,1,2,3,4,7,6,5,4,2,3,4,5,
{2}6/8bz4[8:1],{48}8b/2b,3,4,{8},{48}1b/7b,6,5,{8},1b/8b,
{24}3b/6b,,,2v5[12:1],,,4,3,4,2,,,4/6,,,7v4[12:1],,,5,6,5,7,,,
{8}3q7[12:1]/5,2,4p8[12:1]/3,5,2>5[8:1]/4,1,{24}2/1,8,7,6,,,
{8}4b-8[12:1]/8b,3/5,4b/8b-4[12:1],1/7,4b-8[12:1]/8b,3/5,4b/8b-4[12:1],1/7,
4b-8[12:1]/8b,2/6,4b/8b-4[12:1],2/6,4b/8b,{24}1/5,2/6,3/7,4/8,,,1,,,
2/8,,,3v8[12:1]/7,,,1,2,1,3,,,7/1,,,6v1[12:1]/2,,,8,7,8,6,,,
{8}2q6[12:1]/8,3,2/4q8[12:1],5,1>4[12:1]/4,3,5,7,
8b<5[12:1]/1bp5[12:1],6,1b>4[12:1]/8bq4[12:1],3,8b<5[12:1]/1bp5[12:1],6,1b>8[4:1]/8b,3,
{2}1b/8b,{48}8b/2b,3,4,{8},{48}1b/7b,6,5,{8},1b/8b,
{24}3b/6b,,,5,,5,2h[4:1],,,,,,1,,4,3,,5,6,,6,4,,,
3/5,,2,1,,2,3/4,,2,8,,2,3/5,,2,1,,2,3/4,,1,8h[8:1],,,
6>3[12:1],,8,1,,8,6,,1,1h[8:1],,,3<6[12:1],,1,2,,1,3,,8,8h[8:1],,,
1,,1/8,,,5/7,,,2/4,,,1/8,7qq5[12:1]/8pp2[12:1],6,5,4/3,2,1,7/8,,,,,,
6b/3b,,,4,,4,7h[4:1],,,,,,8,,5,6,,4,{12}3,2/4,1/5,
8,1/7,2/6,5,4/6,3/7,2,1/3,4/8,5b/7b,,,
{24}1b>4[12:1]/8b,,,2/3,,1,8b<5[12:1],,,6/7,,8,1b>4[12:1],,,2/3,,1,8b<5[12:1],,,6/7,,8,
1,,2,4,3,,4/5b,,6,5,7,,2b/8,,1,3,4,,3/5b,,6,8,7,,
{8}1b>4[12:1],4/8b-4[12:1],1v6[12:1]/7,8,1b,7b<4[12:1],2q4[3:1]/5,7/8,
{12}2,1,8,7,6,5,{4}4h[4:1],5h[4:1],
{24}1b,,,5,6,7,1,2,3,4,,5,3,,3,4,,2h[6:1]/5,,,,,,,
8h[8:1]/4,,,4,3,2,8,7,6,5,,3,4,,2,1,,3/8h[8:1],,,1,8,,6,
1h[8:1]/5,,,5,6,7,1,2,3,4,,5,3,,3,4,,2h[6:1]/5,,,,,,,
1b/8bq4[12:1],,,4,3,2,1bp5[12:1]/8b,,,5,6,7,1b/8bq4[12:1],,,4,3,2,1bp5[12:1]/8b,,,5,6,7,
1b/8b,,,3b/6b,7,8,2,3,4,5,,6,4,,5,6,,4/7h[6:1],,,,,,,
3b/6b,,,3,2,1,7,6,5,4,,3,5,,4,3,,5/2h[6:1],,,,,,,
{2}1b/8b,{24}6,5,6,3,4,3,7,5,6,2,4,3,
8b,7,6,5/3,6,7,8b/1b,2,3,4/6,3,2,1b/8b,7,6,5/3,6,7,8b/1b,2,3,4/6,3,2,
1b/8b,,2b/7b,,,,5/6,,,8,,,2/4,,,2/8,3,4,5/6,,,1/7,,,
2/4,,,2/8,3,4,5/6,,,1/7,,,2/4h[4:1],,,5,,,1,2/5,3/6,4/7,,,
2b/7b,,,1,,,4/3,,,2/8,,,7/5,,,7/1,6,5,4/3,,,2/8,,,
7/5,,,7/1,6,5,4/3,,,2/8,,,7/5h[4:1],,,4,,,8,7/4,6/3,5/2,,,
{4}2-5[12:1]/7-4[12:1],2b/7b,{24}4/5,,,8/2,3,4,5/6,,,7/8,,,
4/5,,,1/7,6,5,3/4,,,1/2,,,4/5,,,1/8,2/7,3/6,4/5,,,2/7,,,
4/5,,,1,8,1,7,5,6,4,,,2,4,3,5,,,2/7,,,2/7,,,
6h[4:1],,,5,,5h[24:7],,,,4,,4h[24:7],,,,3,,3h[6:1],,,,6,,,
1-3[12:1],,1b/8b,,,,1-5[12:1]/4,,,8,,,1-3[12:1]/6,,,7,6,5,1-4[12:1]/4,,,8,,,
1-3[12:1]/6,,,7,6,5,1-5[12:1]/4,,,8,,,1-3[12:1]/6,,,7,,,1-4[12:1]/4,5,6,7,,,
1b/8b-6[12:1],,,,,,8-4[12:1]/5,,,1,,,8-6[12:1]/3,,,2,3,4,8-5[12:1]/5,,,1,,,
8-6[12:1]/3,,,2,3,4,8-4[12:1]/5,,,1,,,8-6[12:1]/3,,,2,,,8-5[12:1]/5,4,3,2,,,
1b-3[12:1]/8b,,,,,,1-5[12:1]/4,,,8,,,1-3[12:1]/6,,,7,6,5,1-4[12:1]/4,,,8,,,
{8}7h[8:1],5h[8:1],4h[8:1],2h[8:1],{24}6b,,6,5,,5,4b,,4,3,,,
4b/5b,,7,8,7,8,1b/6b,,2,1,2,1,3b/8b,,5,4,5,4,7,6,5,1,2,3,
{8}4b/8b,2b/6b,3b/7b,1b/5b,2b/7b,4b/5b,1b/8b,,
{24}2,3,4,7,6,5,{8}1h[8:3],,,{24}2,3,4,1,2,3,7,6,5,
4/8,7,6,5/1,8,7,6/2,1,8,7/3,2,1,8/4,3,2,1/5,6,7,{4}8/1h[4:1],
{24}7,6,5,2,3,4,{8}8h[8:3],,,{24}7,6,5,8,7,6,1,2,3,
{8}4b/5h[8:1],{32}8,1,2,3,{8}4h[8:1]/5b,{32}1,8,7,6,{8}4b/5h[8:1],{32}8,1,2,3,{8}4h[8:1]/5b,{32}1,8,7,6,
{24}5/4,3,2,1/5,6,7,{8}8/1h[8:3],,,{24}2,3,4,1/5,2/6,3/7,4h[8:1]/8,,,
1,2,3,2/4,3,4,3/5,4,5,4/6,5,6,5/7,6,7,4/8,3,2,{4}1h[4:1]/5,
{24}5,6,7,8/4,3,2,{8}1/8h[8:3],,,{24}7,6,5,8/4,7/3,6/2,5h[8:1]/1,,,
{32}1b,2,3,4,5,6,7,8,1/7b,6,5,4,3,2,1,8,7/3b,4,5,6,7,8,1,2,3/5b,4,3,2,1,8,7,6,
{24}4b/5b,,,4b/5b,3,2,8,5,7,3,5,4,7,,6,5,,4/7h[6:1],,,,,,,
5b/4b,,,5,6,7,1,4,2,6,4,5,2,,3,4,,2b/8b,,,1b/7b,,,,
4b/5b,,,4,3,2,8,5,7,3,5,4,7,,6,5,,4/7h[6:1],,,,,,,
5b/4bq8[12:1],,,8,7,6,5bp1[12:1]/4b,,,1,2,3,5b/4bq8[12:1],,,8,7,6,5bp1[12:1]/4b,,,1,2,3,
4b/5b,,,2b/7b,3,4,6,8,7,2,8,3,5,,4,3,,2h[6:1]/5,,,,,,,
1b/8b,,,7,6,5,3,1,2,7,1,6,4,,5,6,,4/7h[8:1],,,3,5,,2,
1b/8b,,,2,3,4,6,8,7,2,8,3,5,,4,3,,5/2h[6:1],,,,,,,
1b/8bq4[12:1],,,4,3,2,1bp5[12:1]/8b,,,5,6,7,1b/8bq4[12:1],,,4,3,2,1bp5[12:1]/8b,,,5,6,7,
1b/8b,,,8,,6,8,,,5/8,,,4/7,,,3/6,,,8/1,,,1,,3,1,,,4/1,,,5/2,,,6/3,,,
1/8,,,8,,5,7,,,4/7,,,3/6,,,{8}1h[4:1]/8,3,6,8h[4:1]/1,6,3,
{24}1/2,,3>8[8:1],4,,2/5,,,3,7,6,5,4,5,6,8/7,,6<1[8:1],5,,7/4,,,6,2,3,4,5,4,3,
2/7,,,,6,4,5,3,5,4,6,3,4,2,6,5,7,1,8h[8:1],,,4,7,1,5,2,8,4,5,8,6,4,1,3,8,1,
5v8[12:1],6,7,4/8,7,6,1/5,,,4v1[12:1],3,2,5/1,2,3,8/4,,,
5v8[12:1],6,7,4/8,3/7,2/6,1/5,,,4v1[12:1],3,2,5/1,6/2,7/3,8/4,,,
{8}2b/7b,,,(99){48}5b/6b,4/7,,,,,(96.3)3b/4b,2/5,,,,,(73.2)1b/8b,,,,,,(67.5){96}1b/8b,2/7,3/6,4<4[2:1]/5>5[2:1],
