&title=ロマンモンスター
&artist=森羅万象
&first=0
&des=夜梨
&lv_5=13
&inote_5=(134)
{16},,,,,,,,,,,,,,,,,,,,
3V52[4:2]/6h[4:3],,,,,,,,,,,,,,,,
6V48[4:2]/3h[4:3],,,,,,,,,,,,,,,,
3>4[4:6]/7h[4:7],,,,,,,,,,,,,,,,
,,,,,,,,,,,,,,,,
6h[4:1]/4,,,,1,,,,3h[4:1]/5,,,,8,,,,
7h[4:1]/1,,,,1-4[4:1],,8-5[4:1]*-5[4:1],,,,,,,,,,
3-8[8:1],,,,7-4[8:1],,,,3>6[4:1],,3,,5,,5bw1[8:3],,
,,,,,,,,,,,,37,,,,
3,4,2q5[4:2],4,,,6h[4:1],,,,,,6,,6,,
6,5,7p4[4:2],5,,,3h[4:1],,,,,,3,,3,,
6,4,5p4[8:3],3,,,3h[4:1],,,,,,2,,18,,
27,,2,1,,3,4,,18,,2,4,3,5,4,6,
2,1,3q5[4:2],1,,,7h[4:1],,,,,,7,,7,,
7,8,6p4[4:2],8,,,2h[4:1],,,,,,2,,2,,
7,1,8q1[8:3],2,,,2h[4:1],,,,,,3,,45,,
35,,78,,46,,12,,4,5,3,6,2,7,1,8,
2>4[8:1],,,,1,,,,8>2[8:1],,,,7,,,,
6<8[8:1],,,,5,,,,4<6[8:1],,,,3,,3,,
4-2[8:1]/2,,,,5,,5,,6-4[8:1],,6,,3,,3,,
1>4[8:1],,,,5-7[8:1],,5-1[8:1],,,,,,8,,26,,
3h[8:1],,5,2h[8:1],,4,1h[8:3],,,,,,7,,7,,
6h[8:1],,4,7h[8:1],,5,8h[8:3],,,,,,2,,3,,
45,,3,4,3h[8:1],,5,4h[16:3],,,8q1[4:2],,7,,1/8,,
,,,,,,,,4b/5b,,,2/5,,,4/7,,
2-5[8:1],1,,1,2,,6,6h[16:3],,,1h[8:1],,8h[8:1],,3,,
2>5[8:1]/6,,5<8[8:1],6h[16:7],,,,,,,,,8,,27,,
35,,3,1,3,,1-5[8:1],8,,,7,,6,,18,,
27,,3,24,,6,57,,8,,17,,26,,35,,
1-5[8:1]/6,,5>8[16:4],6,,,8p4[8:1]*<5[8:1],,,,,,,,2,,
8-4[8:1]/3,,4<1[16:4],3,,,1q5[8:1]*>4[8:1],,,,,,,,7,,
18,,3,5,1,,6,4,8<5[8:1],,5pp8[8:4],,8,,4,,
,,3,,3,,2,,2,,71,,26,,3/5,,
{32}2qq3[4:6]/7,6,5,,,,,,,,,,,,,,6,5,4,,{16},,,,,,
5,,5,,6,,6,,7,,7,,8,,8,,
{32}6pp5[4:6]/2,3,4,,,,,,,,,,,,,,3,4,5,,{16},,,,,,
4,,4,,3,,3,,2,,2,,1b,,,,
46,,3<6[8:1],8,,8,3,,8-4[8:1],,7,,68,,5,,
35,,1,,28,,6,,47,,3,,2-5[8:6],,1-6[8:5]*-6[8:5],,
,,,,,,,,,,,,,,3b/7b,,
,,45,,16,,34,,18,,56,,38,,1b/5b,,
,,1b/8b,,1b/8b,,1bs5[4:1]/8b,,,,,,,,,,
2<7[8:1]/7,,,6,,,5,,34,,2,1,2,,38,,
45,,7,8,,2,1,,4-8[8:1]/2,,5,,46,,7,,
16,,3,4,3,,45,,38,,6,5,6,,45,,
37,,1-5[8:1]/5,,37,,5<8[8:1]/1>4[8:1],,,,15,,,,3,4,
2<7[8:1]/5,,,5,,,6,,45,,3,4,3,,1/6>3[8:1],,
,,2,,,1>5[16:3],,,5<1[16:3],,,1,,,,,
5-1[8:1],,6,,57,,6,7,8-4[8:1],,1,,28,,3,,
62,,8-4[8:1]/4,,62,,4V28[6:1]/8V64[6:1],,,,84,,,,,,
3,4,3,,16,,38,,45,,36,,18,,2bqq5[4:2]/7bpp4[4:2],,
,,,,,,,,,,,,,,,,
1-4[4:3],,,,,,,,,,,,,,,,
8-5[4:3],,,,,,,,,,,,,,,,
1-4[4:2],,,,,,,,8-5[4:2],,,,,,,,
1>7[4:2],,,,,,,,,,,,,,,,
34,,,,56,,,,34,,,,56,,,,
,,1b-5[16:1],,,6b-1[16:1],,,2b-6[16:1],,,5b-2[16:1],,,1b,,
8bw4[8:3],,,,,,,,,,,,,,2b/6b,,
,,1b-4[8:1]/8b-5[8:1],,1b/8b,,1b/8b,,,,,,,,,,
4b/5b,,4bqq1[4:3]/5bpp8[4:3],,,,,,,,,,,,,,
,,,,,,,,
45,,3<6[8:1],4,,4,3,,7,,7<4[8:1],8,7,,3,,
1,,8-4[8:1],6,,2,8,,3,,2,1,2,,3,,
1<6[8:1],5,2,6,1,,5,,8>3[8:1],4,7,3,8,,4,,
6,5,8,3,6,1,8,3,7,5,6,4,5,3,4,2,
5,,6>3[8:1],5,,5,6,,2,,2>5[8:1],1,2,,6,,
,7,68,,2,13,,45,45,,36,27,,27,18,,
34,2,4,3,5,,47,,56,7,5,6,4,,25,,
3,4,2,5,1,6,8,7,1,5,2,6,3,7,4,8,
5,,2<7[8:1],4,,4,2,,6,,6<1[8:1],5,6,,2,,
4,,5>2[8:1],6,,7,8,,1,,6,5,6,,7,,
1,1,6,4,8,,25,,8,8,3,5,1,,47,,
7,8,5,2,7,4,5,2,6,8,7,1,8,2,1,3,
8,,7>2[8:1],5,,5,7,,3,,3<6[8:1],4,3,,6,,
7,,8b-3[16:1]/1b,,,1b-6[16:1]/8b,,,4b-7[16:1]/1b,,,2b-5[16:1]/4b,,,8b,,
8b,,17,,3,5,1-5[8:1],,8,,17,7,,,16,,
8-4[8:1]/3,,,,18,,1-5[8:1],,,,71,,7V51[4:1],,8,,
4h[4:1]/7,,,,,,45,,38,,1,8,,3qq5[16:7],6pp4[16:6]*pp4[16:6],,
,,,,,,,,,,,,2b/7b,,,,
3,4,1<3[4:1],7,,,8h[4:1]/1,,,,,,27,,6,,
6,5,8>6[4:1],2,,,1h[4:1]/8,,,,,,25,,7,5,
6,4,5p4[8:3],3,,,3h[4:1]/5,,,,,,2,,18,,
27,,2,1,,1,8,,57,,2,4,3,5,4,6,
2,1,3>6[4:1],5,,,4h[4:1]/3,,,,,,35,,6,,
7,8,6<3[4:1],4,,,5h[4:1]/6,,,,,,46,,3,,
2,1,5<4[8:3],7,,,1h[4:1]/5,,,,,,8,,26,,
35,,78,,46,,12,,4,5,2,8-4[12:1],1,7,2,8b,
,,,,,,
