&title=with U
&artist=t+pazolite & Massive New Krew feat. リリィ(CV:青木志貴)
&first=0.046
&des=RkNcoon
&lv_6=13+
&inote_6=(155){1},{2},
{4}6,4,2h[2:1]/4h[2:1],,,
{8}3,3,5/7h[4:1],,1h[8:3],3,,5,,,
{8}8h[4:1]/4h[4:1],,,,6/2h[8:3],,4,8,
{2},
{4}2x-4[4:1],4xv5[4:1],5x-7[4:1],,8,1,
{1}2x/8xp1b[4:3],
{8},,,7p3p8[4:3],7,,4,4,
{8},,,2,6,3,7,4,
{8}15,15,26,26,,7/3q1[4:1],,3b/5h[4:1],,,,6x/E3,,7x/E4,,8x/E5,
{8},73,48,73,,2/6p8[4:1],,6b/4h[4:1],,,,3x/E7,,2x/E6,,1x/E5,
{8},62,15,62,,3/7q5[4:1],,7b/1h[4:1],,,,2x/E7,,3x/E8,,4x/E1,
{8},3,5,4,6,5,7,6,8h[8:3],4h[4:1],,,,B7/B3,B6/B2,E6/E2,
{4}6,6,6v4-2[2:1],6,6,6,{8}7x,B1,6x,C,
{4}7,7,7v1-3[2:1],7,7,7,{8}6x,B4,7x,C,
{16}6,,6,,8,1,2,,3,,3,,5,6,7,,8,,8,,2,3,4,,5,,5,,7,8,1,,
{16}6,,6,,2,,2,,7,3,7,3,8,4,8,4,
{1}1bxqq7v5[2:1]*pp3v5[2:1],
{4}7/3-5[8:1],3/6-2[8:1],6/1-7[8:1],1/6-2[8:1],
{4}6/3-5[8:1],3/6-2[8:1],6/1-7[8:1],
{8}1/6b,6b,
{4}2/6-4[8:1],6/3-7[8:1],3/8-2[8:1],8/3-7[8:1],
{4}3/6-4[8:1],6/3-7[8:1],
{8}3/8b-2[8:1],8b,8/3b,3b,
{4}4/8-6[8:1],8/5-1[8:1],5/2-4[8:1],2/5-1[8:1],
{4}5/8-6[8:1],8/5-1[8:1],5/2-4[8:1],
{8}2/5b,5b,
{8}5/1-3[8:1],,1/4-8[8:1],,4/7b-5[8:1],7b,7b,,
{16}B4f/1x,,,2x/B5f,,,3x/B6f,,,,84,,73,,26,,
{1}5pp8[2:1]/1pp4[2:1],
{8}6/2-5[8:1],3,2/8-4[8:1],7,8/1-5b[8:1],{16},1x/7x,1x/7x,,6bx,,
{8}3/7-4[8:1],6,7/1-5[8:1],2,1/8-4[8:1],7,8/2-6[8:1],3,
{8}28,,4b/8b,2b/6b,{16},37,37,,15,,37,,
{8}6/2-5[8:1],1,2/7-4[8:1],8,7/2-8b[8:1],1,2bx/7-5[8:1],6bx,
{8}7/3-8[8:1],4,3/6-1[8:1],5,{16}6/3x-5b[8:1],3x,3x,,3bx/6-8[8:1],,7bx,,
{8}6/2-4[8:1],1,2/5-1[8:1],6,5/8V64[8:1],7,28,3,
{16}B8/5x,,,6x/B1,,,7x/B2,,,,84,,73,,26,,
{2}4qq8[1:1],6,8>5[2:1],{4}E6,C,
{2}E2/5pp1[1:1],3,1qq1[2:1],3h[2:1],
{2}1pp5[1:1],7,5>8[2:1],{4}E8,C,
{1}E4/8v5pp4b[4:5]*v3qq4b[4:5],,
{4}6V47[2:1],E8,C,E3,{8}E6/3x,3,E7/4x,4,{16}A2,,,A1,,,A8,,
{4}A7/3V52[2:1],E2,C,E7,{8}E4/6x,6,E3/5x,5,{16}A7,,,A8,,,A1,,
{8}A2/6,6,3,3,7,7,2,2,{16}8,1,8,1,7,2,7,2,6,3,6,3,5,4,5,4,
{32}5x,6x,7x,8x,1x,2x,3x,4x,5x,6x,7x,8x,1x,2x,3x,4x,
{32}5x,6x,7x,8x,1x,2x,3x,4x,E5,E6,E7,E8,E1,E2,E3,E4,
{32}B4,B5,B6,B7,B8,B1,B2,B3,{4}Chf[2:1],8-4[16:1],,
{8}1h[16:1]/2h[16:1],1h[16:1]/2h[16:1],4bxh[16:1]/6bxh[16:1],
{16}35,35,,57,57,,8h[16:1]/2h[16:1],,8h[16:1]/2h[16:1],,
{8}5h[16:1]/6h[16:1],5h[16:1]/6h[16:1],8bxh[16:1]/2bxh[16:1],
{16}71,71,,13,13,,4h[16:1]/6h[16:1],,4h[16:1]/6h[16:1],,
{8}8h[16:1]/7h[16:1],8h[16:1]/7h[16:1],5bxh[16:1]/3bxh[16:1],
{16}64,64,,42,42,,1h[16:1]/7h[16:1],,1h[16:1]/7h[16:1],,
{8}4h[16:1]/3h[16:1],4h[16:1]/3h[16:1],1bxh[16:1]/7bxh[16:1],
{16}28,28,,86,86,,3h[8:1],,5,,
{8}6h[16:1]/4h[16:1],6h[16:1]/4h[16:1],1bxh[16:1]/8bxh[16:1],
{16}53,53,,47,47,,8h[16:1]/2h[16:1],,8h[16:1]/2h[16:1],,
{8}3h[16:1]/5h[16:1],3h[16:1]/5h[16:1],8bxh[16:1]/1bxh[16:1],
{16}46,46,,52,52,,1h[16:1]/7h[16:1],,1h[16:1]/7h[16:1],,
{8}2h[16:1]/8h[16:1],2h[16:1]/8h[16:1],5bxh[16:1]/4bxh[16:1],
{16}17,17,,83,83,,5h[16:1]/6h[16:1],,5h[16:1]/6h[16:1],,
{8}7h[16:1]/1h[16:1],7h[16:1]/1h[16:1],4bxh[16:1]/5bxh[16:1],
{16}82,82,,16,16,,4,3,4,,
{4}B5,B6,B7,B8,B1,B2,7-2b[16:1]/3-6b[16:1],,
{8}1h[16:1]/5h[16:1],1h[16:1]/5h[16:1],3bxh[16:1]/7bxh[16:1],
{16}64,64,,35,35,,1h[16:1]/7h[16:1],,1h[16:1]/7h[16:1],,
{8}8h[16:1]/4h[16:1],8h[16:1]/4h[16:1],6bxh[16:1]/2bxh[16:1],
{16}35,35,,64,64,,8h[16:1]/2h[16:1],,8h[16:1]/2h[16:1],,
{16}7x,4x,7x,4x,{32}6,5,4,3,2,1,8,,
{16}2x,5x,2x,5x,{32}3,4,5,6,7,8,1,,
{16}6x,3x,6x,3x,{32}5,4,3,2,1,8,7,,
{16}3x,6x,3x,6x,{32}4,5,6,7,8,1,2,,
{16}5x,6x,7x,8x,1x,2x,3x,4x,{32}5x/1,2,3,4,5,6,7,8,1,2,3,4,5,6,7,8,
{1}1bq5[2:1]/5bq1[2:1],
{4}4q8[2:1],4,4,4,5p1[2:1],5,5,5,2q6q1[4:3],2,5,5,Cf,,
{8}4xqq2[8:1]/3xpp5[8:1],5x/2x,,,
{8}71,28,71,6bh[16:1]/4bh[16:1],28,71,28,3bh[16:1]/5bh[16:1],
{8}78,21,78,6bh[16:1]/4bh[16:1],21,78,21,3bh[16:1]/5bh[16:1],
{16}6h[16:1]/8h[16:1],,1h[16:1]/3h[16:1],,4x,5x,4x,,
{16}3h[16:1]/1h[16:1],,8h[16:1]/6h[16:1],,5x,4x,5x,4x,
{8}5xp4[2:1],,E6,E7,E8,,3qq8[2:1],,
{24}D8,A7,D7,A6,D6,A5,{8},,7,7,8/6pp1[2:1],,
{24}D2,A2,D3,A3,D4,A4,{8},,2,2,1/3q4[2:1],,
{24}D8,A7,D7,A6,D6,A5,{8},,7,7,8/6p5[2:1],,
{24}D2,A2,D3,A3,D4,A4,{8},,2,2,13,,
{8}64,35,64,7bxh[16:1]/1bxh[16:1],35,64,35,2bxh[16:1]/8bxh[16:1],
{8}65,34,65,7bxh[16:1]/1bxh[16:1],34,65,34,2bxh[16:1]/8bxh[16:1],
{16}3,7,3,7,2,6,2,6,1,5,1,5,8,4,8,4,
{32}1,2,3,4,5,6,7,8,1,2,3,4,5,6,7,8,1,2,3,4,5,6,7,8,1,2,3,4,5,6,7,8,
{1}1b/5h[1:1],,E
