&title=Gimme×Gimme
&artist=八王子P、giga
&first=0
&des=SnapDot
&clock_count=4
&lv_5=13
&inote_1=
&inote_5=(105)
{1},
,
{24}3,,3,4,,,B5,,B6,,,,5/6,,,,,4,3,,,C,,,
{24}6,,6,5,,,B4,,B3,,,,4/3,,,,,6,5,,5,6,,3,
{24}4h[4:1]/3,,,B1,,,3h[24:5],,,,,5h[8:1],3x-1[12:1]*-8[12:1],,,4x,,,E3,,,,,,
{24}1,,,C,,,3/5x,,,B4,,2,,,E3,B3,,B6,B5,,3x,4x,,4x,
{8}3x>8[8:1],4,3-6[8:1]/5,6,3/7h[4:1],,,,
{24}6,,6,5,,,4/6q2[8:1],,,3,,,4/6,,,,,,B4/E4/A4,,,,,,
{8}3h[4:1],8,4h[4:1],8,5h[4:1],8,6h[4:1],1,
{24}2,,3,5,,4,6h[8:1],,,,,,6,,6,4,,5,3h[8:1],,,,,,
{8}8v6[8:1],4,8-4[8:1],3,8v3[8:1]*v6[8:1],,8,,
{8}4v7[8:1]/5-7[8:1],6,4-2[8:1]/5-2[8:1],3,4/5,,B7/B6,,
{8}1>3[8:1],8,7>1[8:1],6,5<7[8:1],4,3qq4[4:1],,
{8}5,6,7,8h[4:1],5pp7[8:1]*qq3[8:1],5,,,
{24}2b/6b,,,3,5,,4,,,3,3,,4/6,,,5,3,,3pp5[8:1]*>8[8:1],,,7/8,,,
{24}3b,,,,,,1,,1,7,,7,5,,5,4,,4,2-4[8:1]*-6[8:1],,2,1,,,
{24}2b,,,,,,4/5,,4,5h[24:3],,,6<2[8:1],,,E1,,,2pp4[8:1]*v5[8:1],,,,,,
{24},,,,,,3,,3,5,,,6-3[8:1],,6,4,,4,,,,,,,
{24}4>1[8:1],,,5,,,4<7[8:1],,,3,,,4v1[8:1],,,3,,,4,,,E3,,,
{24}8-5[8:1],,,4,,,8V64[4:1]*<6v4[4:1],,,3,,,,,,,,,,,B2,E3,,B6,
{24}B5/3x<5[8:1],,,,,,3,,,6h[24:5],,,5,,5,6,,,5w1[6:1]/8,,,,,,
{4}5-3[8:1]*-7[8:1],5-2[8:1]*-1[8:1],5-8b[8:1]*-7b[8:1],5b,
{24}1-5[8:1]/2,,3,4,,,1/7,,6,6,,,7p3q7[4:1]/8,,2,1,,,7/8,,,,,,
{24},,,3/4,,,3,,3,4,,4,5-1[8:1],,5,7-4[8:1],,,5b,,,7b,,,
{24}B3/A3,,6,5,,,3>8[8:1]/4,,7,8,,,3/5,,,6,,,7qq8[4:1],,,1,,,
{8}B6,B1,3x-6[8:1]*-8[8:1],4x,3s7[8:1]*-7[8:1],,3,,
{24}4/5p1[8:1],,3,4,,,5/6,,7,7,,,8p4[8:1],,4,4<7[8:1],,,4/8,,,,,,
{24}4x,,7,5,,,6v1[8:1]/4,,4,5,,,6/5-2[8:1],,,4-8[8:1],,,5b,,,4b,,,
{24},,,7,5,,6,4,,5,3,,,,,2,4,,3V57[6:1]*V17[6:1],5,,4,6,,
{8},,6v4[8:1]/8V24[8:1],,,,Ch[8:1],,
{24}4hb[8:1]/5hb[8:1],,,,,6,5,,3,4,,4z8[6:1],5,,,A3,,5,,,6,6,,,
{24}3hx[8:1]/4hx[8:1],,,,,7,5,,5,6,,6,4h[24:5],,,,,C,,,1,2,3,4,
{24}5hx[8:1]/7hx[8:1],,,,,6,5,,5,6,,6<1[8:1],7,,,,,E7,,,4,4,,,
{24}1-5[8:1]/2v4[8:1],,,,,1-7-2[6:1]/2,1/2-6-3[6:1],,,,,,,,,,,,2x,3x,4,5,6,,
{8}8-4[8:1],7x,6-2[8:1],5x,4-8[8:1],3x,2,E3/E2,
{24}2/7-4[8:1],,,8,,,2-5[8:1]/7,,,1,,,1-6[8:1]/2,,,8,,,1,,A2,A3,A4,,
{8}3x/4x,3x/4x,5/6,5/6,7/8,7/8,1/2qq2[6:1]*pp2[6:1],3/4,
{4},1-6-1[6:1]/3-8-3[6:1],1w5[8:1]/3,1bx,
{24}3x/4x-8[8:1],,6,5,,,4/6,,7,7,,,6>3[8:1],,1,1v6[8:1],,,,,,,,,
{24},,,5/6,,,4/3,,,2,4,,4-8[8:1],5,,5-1[8:1],6,,4b,,,5b,,,
{24},,,4/6h[8:1],,,5>2[8:1],,5,6,,,5/7,,,6,,,5v7[8:1],,,4,,,
{8}3,1,2<7[8:1]/6>3[8:1],3,2xq6[8:1]/6xq2[8:1],,2b/6b,,
{24}2/1q5[8:1],,3,4,,,1/8,,7,7,,,6q2[8:1],,2,2<7[8:1],,,4/6,,,,,,
{24}2x,,2,4,,,3v8[8:1]/5,,5,4,,,3/4-7[8:1],,,5-1[8:1],,,4b,,,5b,,,
{24},,,2,4,,3,5,,4,6,,,,,7,5,,6p2[6:1]*V82[6:1],4,,5,3,,
{4},1-3>2-7[6:1]/3-1>2-7[6:1],,Ch[8:1],
{24}4-8[8:1]/5,,6,5,,,3/4,,2,2,,,3,,3,1,,1,8,,8,6h[24:23],,,
{24},,E1,B1,,,,,E7,B7,,,D6,,B5,,,B4,,,E3,B2,,,
{24}2xp6[8:1]/4x,,6,5,,,2/4,,3,3,,,6/5,,,4,,4,7,,7,3h[24:23],,,
{24}B8,B7,B6,B5,,B2,E3,,,C,,,E8,B7,,E6,,,B1,,B3,,,,
{24}1p5[8:1]/8,,7,8,,,2/1,,3,3h[8:1],,,4,,4,3,,3,6,,6,4h[24:23],,,
{24},,,C,,,,,,B7/E7/B6,,,B1,B2,,B7,E8,,A3,,,E1,,,
{24}3x/4x,,,2,,2,4,,3,5,,,6b,,,7,,7,5p1[8:1]*q1[8:1],,6,4,,,
{8}5b,,1-6-4[6:1]/3v1[6:1],,,,Ch[8:1],,
{24}3,,3,4,,,B5,,B6,,,,5/6,,,,,4,3,,,C,,,
{24}6,,6,5,,,B4,,B3,,,,4/3,,,,,5,6,,C,,,,
{24}6,,6,5,,,B4,,B3,,,,4/3,,,,,5,6,,,C,,,
{24}3,,3,4,,,B5,,B6,,,,5/6,,,,,4,3,,3,4,,5-8>1-4<5[4:3],
{1},
{24}3x-1-4-8[2:1],,,,,,,,,,,,,,,,,,,,5,6,,4,3,
{32},,,C,
