&title=コモリヌ
&artist=Qayo
&first=0.2
&des=57qx55uQ
&des_6=57qx55uQ
&lv_6=14
&inote_6=(180){4},,E6,E5,
2xh[1:1]/E4,,,E6,
{2}E7,{4}E8,E1,
3h[1:1]/E2,,,E8,
{1}Ch[2:1],
{4}5h[4:1],4p4[2:1],{8},,,,8,
8,1,2,{2}6h[4:1],
{4}4h[4:7],E6,E7,E8,
E1,E2,E3,{16}1,8,7,6,
{1}5/1bqq7v5[4:5]*pp3v5[4:5],
,6V85V71[4:5]/4V25V31[4:5],
{8},,,,,,,,6h[8:1],
{16}5,5,{8}6h[8:1],{16}7,7,{8}6-3[8:1],3-7[8:1],6,1,
2h[8:1],{16}1,1,{8}2h[8:1],{16}3,3,{8}2-7[8:1],7-3[8:1],2,6,
5,6h[8:1]/4h[8:1],,6/4,{16}3,7,3,7,2,8,{8}1h[4:1],
,8,7-3[8:1],6/8,{2}7b/3-7[8:1],
{8}4/6-1[8:1],5,6/4,3,4/6<1[8:1],5,4/6,3,
2V46[8:1],1,2/8-4[8:1],7,{4}8w4[8:1],8b,
{8}2pp4[8:1],2,6pp8[8:1],6,{4}1q5[8:1]*p5[8:1],1,
{16}1,2,3,4,6-1[8:1],6,5,5,{4}6b,2<7b[8:1],
2bqq7b[8:3],6/2,{8}5h[16:1],5h[16:1],{4}5h[8:1],
6>3[8:1],2/6qq3[8:3],{8}6/1h[4:1],,,1,
2-5[8:1],2,1v6[8:1],1,8v3[8:1],8,7-4[8:1],7,
2-5[8:1],2-7[8:1],{4}2<3b[4:1],,Cf,
{2}7x-5b[8:1]/2x-4b[8:1],{8}7/2,1,2/7<5[8:1],8,
7/2v4[8:1],1,2/7<1[4:1],8,{4}7/1,C/B4/E5/B5,
{8}7-5[8:1],8-4[8:1],7x-3[8:1],8x-2[8:1],7x-5b[8:1],8x,{4}7bx,
{8}2-4[8:1],1-5[8:1],2x-6[8:1],1x-7[8:1],2x-4b[8:1],1x,{4}2bx,
{8}7/5-8-3[4:1],6/4,{4}5/3-6-1[4:1],1x-4-7[4:1],4xh[8:1],
{16}3,2,1,8,E5,E4,E3,E2,{4}E1/5w1b[8:1],5b,
{8}3/7-5[8:1],7/3-1[8:1],{4}3/7,{8}4v7>8b[8:1]*v1<8b[8:1],4,{4}4b,
{8}6/2-4[8:1],2/6-8[8:1],{4}2/6,{8}5v2<1b[8:1]*v8>1b[8:1],5,{32}5b,B5,Cf,B8/B2/B1,{8}A2/A1/A8,
,,,,,,,,,,,,,,,,{2}2h[2:1],
{4}3,4,
5h[4:1],{8}6,6,{2}7h[4:1],
{1}8-2-4-6-8>2-4<6[4:7],
{4},,,,Ch[4:7],
B1,B7,B4,
{1}6h[4:3],
{4}1V35[2:1],7,5V71[2:1],7,
1V36[2:1],7,6-2[4:1],7,
{2}8h[2:1],{4}1,2q5[2:1],
7-4[4:1],,,C,
8V61[2:1],2,1-5-2[2:1],2,
{8}3h[8:5],,,,,E1,E8,E7,
4h[8:5],,,,,E5,E6,E7,
{4}3q5[2:1],6,{2}7h[4:1],
{1}B7/E7/B6/B2/E3/B3/Ch[4:7],
,B8/B5/B1/B4/E1/E5/Ch[4:7],
{8},,,,,,,,7h[8:1],
{16}8,8,{8}7h[8:1],{16}6,6,{8}7-2[8:1],2-6[8:1],7,4,
3h[8:1],{16}4,4,{8}3h[8:1],{16}2,2,{8}3-8[8:1],4,3,7,
1b,2b,3b,4b,5b,6b,7b,8bh[8:1]/1bh[8:1],
,6/2,3qq1>5[8:3]/7qq5<1b[8:3],2/6,{2}3b/7b,
{8}2b/6b<1[8:1],5,6/3,4,7/3>8[8:1],4,3/6,5,
{16}7,6,5,4,1,2,3,4,E8,E1,E2,E3,{8}4v7[8:1]*v1[8:1],3/5,
{4}4,{8}2/6,{16}3,5,4z8[4:1],6,4,6,{4}4,
{8}7h[8:1],{16}6,6,{8}8h[8:1],{16}1,1,{8}7v5[8:1],2-6[8:1],7>5[4:1],2,
7,{16},,,,1,8,{8}2,2,1/3,8,
7/2,{16}1,7,8,6,8,6,{8}7-2[8:1],5v8[8:1],7,5,
{16}3b,1,3,1,2b,8,2,8,1b,7,1,7,8b,6,8,6h[16:9],
{4}7bpp4[8:3],{16},,,,,,,,8,7,6,5,
{8}3b/4<7[8:1],2,4/1,2,4/3>8[8:1],{16}5,5,{8}3,6,
{16}7,6,5,4,1-7-2-6[8:3],2,3,4,{4}5-2b[8:1],5,
{8}7/1v7[8:1],8,3/1pp4[8:3],2,{4}1/8<5[8:1],8,
{16}3,2,1,8,E5,E4,E3,E2,{8}5x-2[8:1],8-4[8:1],5,8,
1,2,{16}6,4,5,3,{8}4h[4:1],2,1,2,
8,7,{16}3,5,4,6,{8}5h[4:1],7,8,7,
6/5h[4:1],{16},,,,6,5,6,5,6,5,6,5,6,5,
{4}6b-1[8:1],6b/3b-7[8:1],3b/8bw4[8:1],8b,
{8}1/2,{24}2,3,4,{8}5/6,7,1-5[8:1],6-8[8:1],1,6,
2>4[8:1],5,2-6[8:1],7-1[8:1],2V48[4:1],7,2,7,
6,{16}4,5,{8}3-1[8:1],4/2,3/4-8[8:1],5-7[8:1],4,5,
2>5[8:1],1<6[8:1],2,1,2,8b,{4}8b,
{8}6/5,{24}4,3,2,{8}1/8-4[8:1],7,8/2-6[8:1],3,2/7,8,
1/3,2,1/7,{16}6,5,7,5,{8}6,{16}3,4,2,4,
{8}3h[8:1],{24}5,6,7,{16}2,1,3,5,4,6,8,7,{4}1h[4:1],
{16}8,2,7,3,6,4,5,3,{32}6,7,8,1,2,3,4,5,{4}6/Cf,
{1}7>1s5>3b[4:5]/2<8z4<6[4:5],
{4},,,,8V64b[2:1],
1,2,3,
5b<7[8:1]/4b>2[8:1],5bs1>4b[8:3]/4bz8<5b[8:3],{2}4b/5b,
{8}1/8,2,3/4,{16}5,5,{8}3,3,4/6,{16}7,7,
{8}1,2,3/5,6,7/4,3,{16}8,7,6/2,3,
{8}4/5,5,5/7,7,7/1,1,1/3,3,
{16}5,4,6,3,7,2,8,1,{4}7-3[8:1]/2-6[8:1],2b/7b,
{8}5b/4-8[8:1],5b/4h[4:1],,,1b/7-4[8:1],1b/7h[4:1],,,1b/2-6[8:1],
1b/2h[4:1],,,3b/5p8[8:1],3b/5h[4:1],,,7b/1V35[8:1],
7b/1h[4:1],,,8b/6v8[8:1],8b/6h[4:1],,,7/1,
3/5,2/8,6/4,7b/2b,5b/4b,{32}8b/1b,7b/2b,6b/3b,5b<4b[32:53]/4b>5b[32:53],{1},,{16},,{8}E3,
E7,B2,B7,B1,B8,{4}E1,
{1}2b/7b-3[4:11],
E
