&title=Last | Eternity
&artist=onoken
&first=0
&des=Dororo
&lv_5=13+
&inote_5=(175)
{1},
{32}3,4,{16},2,,5,,3h[4:1],,,,4h[4:1],,,,5h[8:7],,
{16},,,,,,,,,,,,,,,,
{32}6h[256:1],5,{16},7,,4h[256:1],,6h[4:1],,,,7h[4:1],,,,8h[8:7],,
{16},,,,,,,,,,,,,,,,
{32}3h[256:1],4h[256:1],{16},2,,5h[256:1],,3h[4:1],,,,4h[4:1],,,,5h[8:7],,
{16},,,,,,,,,,,,,,,,
{32}6z2[1:1],5V74[1:1],{16},,,,,,,,,,,,,,,
{16},,,,,,,,1b/5,,,,,,,,
{16}3-5[8:1],,3,,4,,,,56,,,,34,,,,
{16}7-4[8:1],,7,,8,,,,53,,,,64,,,,
{16}1-5[8:1],,1,,8,,,,47,,,,25,,,,
{16}8V24[4:1]*V64[4:1],,,,,,,,,,3,,1,,7,,
{16}6-4[8:1],,6,,5,,,,43,,,,65,,,,
{16}2-5[8:1],,2,,1,,,,46,,,,35,,,,
{16}8-4[8:1],,8,,1,,,,7v5[8:1]/3v5[8:1],,,,3>6[4:3]/7>4[4:3],,,,
{16},,,,,,,,,,,,,,,,
{16}3h[8:1]/5h[4:1],,,,3h[8:1],,5h[4:1],,2h[8:1],,,,2h[8:1]/5h[4:1],,,,
{16}1h[8:1],,5h[4:1],,1h[8:1],,,,8-4[8:1]/5,,,,,,,,
{16}6h[8:1]/4h[4:1],,,,6h[8:1],,4h[4:1],,7h[8:1],,,,7h[8:1]/4h[4:1],,,,
{16}8h[8:1],,4h[4:1],,8h[8:1],,,,1-5[8:1]/4,,,,,,,,
{16}4h[8:1]/6h[4:1],,,,4h[8:1],,6h[4:1],,3h[8:1],,,,3h[8:1]/6h[4:1],,,,
{16}2h[8:1],,6h[4:1],,2h[8:1],,,,26,,,,17,,,{32}3,4qq1[4:3],
{16}5pp8[4:3],,,,,,,,,,,,,,,,
{16},,,,,,2b/7b,,,,8,,1,,8,,
{16}2-4[8:1],,,,2,,8,,5-1[8:1],,,,6,,,,
{16}7-5[8:1],,,,7,,1,,4-8[8:1],,,,3,,,,
{16}2z6[8:3]/7s3[8:3],,,,,,,,,,,,18,,,,
{16}7-4[8:1],,5,,4,,2-5[8:1],,,,8,,8,,,,
{16}57,,,,46,,,,35,,,,24,,,,
{16}12,,,,78,,,,56,,,,34,,,,
{16}2,1,3,8,4,7,5,6,4,5,3,4,2<6[8:1],,6b>2[8:1]*V42[8:1],,
{16},,,,,,,,,,2,5,3,6,4,7,
{16}5^2[8:1],,,,15,,8h[4:1],,,,7,,16,,,,
{16}2,4,3,5,4,6,5,7,6-3[8:1],,,,1-6[8:1],,1,,
{16}4-1[8:1],,,,45,,7h[4:1],,,,8,,5h[4:1]/1,,,,
{16}2,3,4,5,1,8,7,6,45,,3,6,2,7,1,8,
{16}2pp4[6:1],,,,8,,1<5[6:1],,,,1,,4,3,2,1,
{16}7qq5[6:1]/8,,,,1,,8>4[6:1],,,,8,,5,6,7,8,
{16}15,,,34,,,48,,,65,,,27,,27,,
{16}1,2,3,4,8,7,6,5,34,,3,5,2,6,1,7,
{16}8b,8,8,8,8,,1h[4:1],,,,2,,38,,,,
{16}7,5,6,4,5,3,4,2,3-6[8:1],,,,8-3[8:1],,8,,
{16}5-8[8:1],,,,45,,2h[4:1],,,,1,,4h[4:1]/8,,,,
{16}7,6,5,4,8,1,2,3,54,,6,3,7,2,8,1,
{16}7-3[8:1],,7,,2-8[8:1],,2,,6-4[8:1],,6,,1,,1,,
{16}2,8,3,7,4,6,5w1[8:1],,,,5b,,,,37,,
{16}3q5[4:7]/7,,,,,,,,,,,,,,,,
{16},,,,,,,,,,,,,,,,
{16}1q3[4:7],,,,,,,,,,,,,,,,
{16},,,,,,,,,,,,,,,,
{16}7q1[4:7],,,,,,,,,,,,,,,,
{16},,,,,,,,,,,,,,,,
{16}5q5[4:5]*p5[4:5],,,,,,,,,,,,,,,,
{16},,,,,,,,,,1b,,,,,,
{16}3h[2:1]/4-1[8:1],,,,,,,,8,,,,7,,7-3[8:1],,
{16},,1,,1-6[8:1],,,,4,,,,,,,,
{16}6h[2:1]/5-8[8:1],,,,,,,,1,,,,2,,2-6[8:1],,
{16},,8,,8-3[8:1],,,,5,,,,,,,,
{16}3h[8:1]/4-1[8:1],,,,,,,,8h[16:1],,,,7h[16:1],,7-3[4:1],,
{16},,1h[16:1],,1-6[2:1],,,,4h[256:1],,,,,,,,
{16}5h[1:1],,,,,,,,,,,,,,,,
{16}6<4[4:1],,,,,,,,1b^6[8:1]*^4[8:1],,,,,,,,
{16}3/7-3[8:1],,,,78,,,,2,4,2,4,1,,6,,
{16}5-1[8:1]/7-4[8:1],,,,57,,,,2,8,2,8,3-8[8:1],,5,,
{16}7-4[8:1]/3,,,,78,,1-5[8:1],,2,4,1,,6,,5,,
{16}7^4[8:1]/4^1[8:1],,,,47,,,,{32}2,3,4,5,6,7,8,1,{16}2b/6b,,,,
{16}4/2-6[8:1],,,,21,,,,7,5,7,5,8,,3,,
{16}4-8[8:1]/2-5[8:1],,,,42,,,,7,1,7,1,6-1[8:1],,4,,
{16}2-5[8:1]/6,,,,21,,8-4[8:1],,7,5,8,,2,,5,,
{16}3-8[8:1]/4-8[8:1],,,,34,,,,{24}7,6,5,4,3,2,8,7,6,5,4,3,
{16}2-5[8:1]/6-1[8:1],,,,2b/6b,,,,7,4,6,5,8,,3,,
{16}2^5[8:1]/4-8[8:1],,,,42,,,,2,8,2,8,3,7,3,7,
{16}4b-8[8:1],,1,,48,,7b-4[8:1],,2,,74,,3b-7[8:1],,6,,
{16}37,,8b-3[8:1],,5,,83,,4bw8[8:1],,,,4>5[1:2],,,,
{16},,,,,,,,,,,,,,,,
{16},,,,,,,,,,,,,,,,
{16}3qq5[4:5],,,,,,,,5pp5[4:3],,,,,,,,
{16},,,,,,,,,,,,,,,,
{16}3,,,,3,,,,2q6[2:1]/4h[2:1],,,,,,,,
{16},,,,8q5[3:1]*p3[3:1],,,,,,,,,,,,
{16}6,,,,6,,,,7p3[2:1]/5h[2:1],,,,,,,,
{16},,,,,,,,4,5,3,6,2,7,1,8,
{16}2^5[16:3],,4^7[16:3],,6^1[16:3],,8^3[16:3],,,,4,,4-1[8:1]*-7[8:1],,,,
{16}4,,,,{12}2h[12:1],4h[12:1],3h[12:1],7h[12:1],5h[12:1],6h[12:1],{16}1-5[8:1],,4,,
{16}18,,,,7,8,6,1,5,2,4,3,5,4,6,5,
{16}7-4[8:1],,3-8[8:1],,7,,3,,5,6,7,8,2,3,4,5,
{16}7^4[16:3],,5^2[16:3],,3^8[16:3],,1^6[16:3],,,,5,,5h[4:1],,,,
{12}8h[12:1],4h[12:1],6h[12:1],1h[12:1],5h[12:1],3h[12:1],8h[12:1],2h[12:1],6h[12:1],{16}8,,17,,
{16}2-6[8:1]/6,,,,1^4[8:1]/2^4[8:1],,,,1b/2b,,,,1>5[8:1]/2^5[8:1],,,,
{16}1b/2b,,,,1>6[6:1]/2>6[6:1],,,,1b/2b,,,,{24}7,8,1,2,3,4,
{16}1w5[8:1]/5,,,,1,,,,3,4,2,5,1,6,8,7,
{16}5,6,4,5,3,4,2,3,{32}1,8,7,6,5,4,3,2,{16}1h[4:1]/6b,,,,
{16}5b-1[8:1],,8,,15,,2b^5[8:1],,7,,25,,6b-2[8:1],,3,,
{16}62,,1b^6[8:1],,4,,16,,5bw1[8:1],,,,5b,,,,
{24}1b/8b,27,36,{16}45,,2,4,2,4,3,8,3,8,5,7,5,7,
{16}1,6,1,6,{12}2h[12:1],4h[12:1],1h[12:1],7h[12:1],5h[12:1],8h[12:1],{16}2-6[8:1],,35,,
{16}26,,,,57,4,3,2,18,7,6,5,3,4,3,5,
{16}3,6,3,7,3,8,3,1,2>6[8:1],,6<2[8:1],,,,,,
{16}4bz8[4:11],,,,,,,,,,,,,,,,
{16},,,,,,,,,,,,,,,,
{16},,,,,,,,,,,,,,,,
{16},,,,,,,,,,,,,,,,
{32}3h[256:1],4,{16},2,,5h[256:1],,3h[4:1],,,,2h[4:1],,,,1h[8:7],,
{16},,,,,,,,,,,,,,,,
{32}6h[256:1],5h[256:1],{16},7,,4h[256:1],,6h[16:3],,,,5h[8:1],,,,4h[16:1],,
{16},,,,,,,,,,,,,,,,
