&title=クエンさん*ガバメント
&artist=黄泉路テヂーモ
&first=0
&des=Dororo
&wholebpm=91-182
&lv_5=13
&inote_5=
(182)
{16}
,,,,,,,,,,,,,,,,
2h[8:3],,,,,,4,,3,,5h[4:1],,,,8h[4:1],,
,,7h[4:1],,,,8,,7,,1,,1,,,,
3h[8:3],,,,,,1,,2,,8h[4:1],,,,5h[4:1],,
,,6h[4:1],,,,5,,6,,4,,4,,,,
7h[8:3],,,,,,5,,6,,4h[4:1],,,,1h[4:1],,
,,2h[4:1],,,,1,,2,,8,,8,,,,
4b>5[1:1],,,,,,,,,,,,,,,,
,,,,,,,,4,5,4,5,4,5,4,5,
3-1[8:1],,,,3,,8,,7,,6-1[8:1],,,,2-4[8:1],,
,,6-1[8:1],,,,3,,4,,3,,2,,,,
4^2[8:1],,,,4,,6,,5,,4q8[8:1],,,,1^3[8:1],,
,,4q8[8:1],,,,4,,3,,2,,1,,6,5,
6-8[8:1],,,,6,,1,,2,,3-8[8:1],,,,7-5[8:1],,
,,3-8[8:1],,,,6,,5,,6,,7,,,,
5^7[8:1],,,,5,,3,,4,,5,,6h[8:3],,2h[4:1],,
,,,,2bq6[4:1]/6bq2[4:1],,,,,,,,,,,,
3V14[2:1],,,,8,,,,4pp3[2:1],,,,7,,,,
3V14[2:1],,,,8,,,,4pp3[2:1],,,,7,,,,
3V14[2:1],,,,8,,,,4pp3[2:1],,,,7,,,,
3,,,,8,,,,4,,4,,35,,,,
6V85[2:1],,,,1,,,,5qq6[2:1],,,,2,,,,
6V85[2:1],,,,1,,,,5qq6[2:1],,,,2,,,,
6V85[2:1],,,,1,,,,5qq6[2:1],,,,2,,,,
6b,,,,,,,,2,5,3,6,4,7,3,6,
2-5[8:1],,,,1,,,,7,,8-4[8:1]/6-4[8:1],,,,86,,
,,3h[8:1],,2h[8:1],,3h[8:1],,5h[8:1],,6h[8:1],,8h[8:1],,1h[8:1],,
4-7[8:1],,,,3,,,,1,,1-3[8:1]*-5[8:1],,,,1,,
,,6h[4:1],,5,,4,,3h[4:1],,4,,5,,6,,
7-4[8:1],,,,8,,,,2,,1-5[8:1]/3-5[8:1],,,,13,,
,,6h[8:1],,7h[8:1],,6h[8:1],,4h[8:1],,3h[8:1],,1h[8:1],,8h[8:1],,
2b^5[16:3],,4b^7[16:3],,6b^1[16:3],,8b^3[16:3],,,,
{24}
4,5,6,7bp3[4:1]*q3[4:1],,,,,,
{16}
,,,,,,1,8,1,,43,,54,,65,,
8h[4:1],,,,3-6[8:1],,3,,1-6[8:1],,1,,,,4h[4:1],,
,,5-1[8:1],,,,1-5[8:1],,3,,3,,3,,3,,
4v7[8:1]/2v7[8:1],,,,42,,,,8,,8^5[4:1],,,,5^2[4:1],,
,,2^7[4:1],,,,7,,6,,5,,4,,,,
1h[4:1],,,,6-3[8:1],,6,,8-3[8:1],,8,,,,5h[4:1],,
,,4-8[8:1],,,,8-4[8:1],,6,,6,,6,,6,,
5/7b-1[8:1],,,,7/5b-3[8:1],,,,6b/5,,6b-2[8:1],,,,4h[8:5],,
,,3b,,3b,,3b,,3b-6[8:1],,3b,,3b,,,,
2b/5b,,3,4,3,,8b/2b,,7,5,7,,
{24}
1b,28,37,46,,,
{16}
,,6^1[8:1],,5,,4,,3^6[8:1],,2,,1,,8,,
7b/4b,,6,5,6,,1b/7b,,2,4,2,,
{24}
8b,71,62,53,,,
{16}
,,3^8[8:1],,4,,5,,6^3[8:1],,7,,8,,1,,
2b/4b,,3,4,2,,5b/7b,,6,5,7,,
{24}
1b/8b,27,36,45,,,
{16}
,,6,5,6,3,4,3,8,1,7,2,8,1,7,2,
8bp4[1:1]*q4[1:1],,,,,,,,,,,,,,,,
,,,,,,,,
{24}
45,3h[256:1],2h[256:1],1h[256:1],8h[256:1],7h[256:1],6h[256:1],5h[256:1],4h[256:1],3b/6b,,,
{16}
,,2,1,2-5[8:1],,8,,2,,6V47[4:1],,4,,6,,
8,,8-2[8:1],,,,8-4[8:1],,,,8-3[8:1],,,,8,,
,,6,5,6^1[8:1],,4,,6,,3p6[8:1],,4,,3b,,
,,5,4,3,2,1,8,7,6,5,4,37,,1b/5b,,
,,7,8,7-4[8:1],,1,,7,,3V52[4:1],,5,,3,,
1,,1-7[8:1],,,,1-5[8:1],,,,1-6[8:1],,,,1,,
,,3,4,3,,17,,34,,8<3[4:1]/2,,56,,8b,,
,,1<4[4:1],,2,,3/1b,,,,2p6[8:1]*v5[8:1],,2,,2b,,
,,3,4,2,,8,,7,,6-1[8:1],,,,8-4[8:1],,
,,6-1[8:1],,,,1-6[8:1],,2,,3,,4,,,,
74,,6,5,7,,1,,2,,3-8[8:1],,,,1-5[8:1],,
,,3-8[8:1],,,,8-3[8:1],,7,,6,,5,,,,
2-5[8:1],,,,2/6-1[8:1],,,,6/4-8[8:1],,,,4/7bs3[4:3],,6bz2[8:5],,
,,,,,,,,,,,,,,,,
4>5[2:3],,,,,,,,,,,,,,,,
,,,,,,,,,,,,,,,,
4>5[2:3],,,,,,,,,,,,,,,,
,,,,,,,,3bp5[8:1],,,,3b,,,,
6h[8:3],,,,,,5,,6,,4-6[8:1],,,,3-7[8:1],,
,,2h[4:1],,,,,,2,1,2,1,2,1,2,1,
3h[8:3],,,,,,4,,3,,5-3[8:1],,,,6b<6[8:7]*>6[8:7],,
,,,,,,,,,,,,,,,,,,,,
(102)
{12}
2q7[4:1],,7,7<2[4:1],,2,2q7[4:1],,7,7<2[4:1],,2,
2q7[4:1],,7,7<2[4:1],,2,2,,8,8,1,8,
7p2[4:1],,2,2>7[4:1],,7,7p2[4:1],,2,2>7[4:1],,7,
7p2[4:1],,2,2>7[4:1],,7,7,,1,1,8,1,
3h[12:1],4,2,7h[12:1],6,8,2h[12:1],3,1,6h[12:1],5,7,
2h[12:1],4,8,7h[12:1],5,1,3,4,5,6,5,4,
3b-5[8:1],3,3,7b-4[8:1],7,7,1b-5[8:1],1,1,8b-4[8:1],8,8,
2b<2[2:1]*<4[16:6]*<6[16:4]*<8[16:2],,,
(91)
{16}
2b,,,,,,,,,
{32}
1,8,1,8,1,8,
(182)
{16}
1-7[4:3],,,,,,,,,,,,,,,,
2-6[4:3],,,,,,,,,,,,,,,,
3-5[4:3],,,,,,,,,,,,,,,,
2-6[4:3],,,,,,,,,,,,,,,,
8-2[4:3],,,,,,,,,,,,,,,,
7-3[4:3],,,,,,,,,,,,,,,,
2b^7[4:3]*v4[4:3],,,,,,,,,,,,,,,,
,,,,,,,,5,6,4,7,3,4,2,5,
{24}
1b,,,7,6,5,4,,,2b,,,8,7,6,5,,,3b<7[8:1],,,,,,
{16}
,,1h[16:1],,1h[16:1],,1h[16:1],,1h[16:1]/5h[16:1],,1h[16:1]/4h[16:1],,1h[16:1]/3h[16:1],,1h[16:1]/2h[16:1],,
{24}
8b,,,2,3,4,5,,,7b,,,1,2,3,4,,,6b>2[8:1],,,,,,
{16}
,,8h[16:1],,8h[16:1],,8h[16:1],,8h[16:1]/4h[16:1],,8h[16:1]/5h[16:1],,8h[16:1]/6h[16:1],,8h[16:1]/7h[16:1],,
{32}
1b,2,3,4,5,,,,,,,,8b,1,2,3,
4,,,,,,,,7b,8,1,2,3,,,,
{16}
,,2,4,3,7,5,6,2,7,3,8,1-5[8:1],6,2,7,
1b>5[1:1]*<5[1:1],,,,,,,,,,,,,,,,
,,,,,,,,8h[256:1],,8h[256:1],,8h[256:1],,8b,,
,,7,8,7-5[8:1],,5-1[8:1],,7,,3-5[8:1],,2,,3,,
,,8,6,7,5,6,4,5,3,4,2,5b-1[8:1],,,,
,,3,4,3^8[8:1],,5,,3,,6q3[8:1],,5,,6b,,
,,4,5,6,7,8,1,2,3,4,5,62,,8b/4b,,
,,2,1,2-4[8:1],,4-8[8:1],,2,,6V47[4:1],,7,,6,,
8,,8-2[8:1],,,,8-4[8:1]/6,,,,8-3[8:1]/1,,,,85,,
,,6,5,6,,82,,65,,1>6[4:1]/7,,43,,1b,,
,,8>5[4:1],,7,,6/8b,,,,7q3[8:1]*v4[8:1],,7,,7b,,
,,6,5,7,,18,,2,,3-8[8:1]/4,,,,1-5[8:1]/3,,
,,3-8[8:1]/1,,,,8-4[8:1]/3,,7-4[8:1],,6,,7,,,,
25,,3,4,2,,81,,7,,6-1[8:1]/5,,,,8-4[8:1]/6,,
,,6-1[8:1]/8,,,,1-5[8:1]/6,,2-5[8:1],,3,,2,,,,
7-4[8:1],,6,,7/3-8[8:1],,2,,3/5-1[8:1],,6,,5/2b-7[4:1],,3b-6[8:1],,
,,,,,,,,45,,3,6,4,5,4b,,
,,2h[8:1],,3h[8:1],,4h[8:1],,5h[8:1],,6h[8:1],,7h[8:1],,8^3[4:1],,
,,3q8[4:1],,,,8^3[4:1],,,,3,,,,8b,,
,,7h[8:5],,6,,5,,4,,3,,2,,1b/8b,,
,,6,5,6,4,7,,3,4,3,5,2,,4b/5b,,
,,7h[8:1],,6h[8:1],,5h[8:1],,4h[8:1],,3h[8:1],,2h[8:1],,1^6[4:1],,
,,6p1[4:1],,,,1^6[4:1],,,,6,,,,1-5[8:1],2,
3,,7-3[8:1],,8,,2-6[8:1],,1,,8w4[8:1],,8,,8b,,
,,1w5[8:1],,1,,1b,,,,37,,37,,8-4[8:1],,
,,81,,2-6[8:1],,,,2^7[8:1],,,,23,,5^2[8:1],,
,,56,,7-3[8:1],,,,17,,1,,1,,1,,
5h[8:1],,7h[8:1],,2h[8:1],,8h[8:1],,3h[8:1],,5h[8:1],,7,,6b/8b,,
,,3,4,1,7,5,6,2,8,3,6,
{32}
45,3,2,1,8,7,6,5,
{16}
4/8-6[8:1],,1,,4-2[8:1]/8,,5,,1-5[8:1]/4,,8-4[8:1],,1b,,8b<4[2:1]*>4[2:1],,
,,,,,,,,,,,,,,,,
5/4>5[8:28],,,,,,,,,,,,,,,,
,,,,,,,,,,,,,,,,
,,,,,,,,,,,,,,,,
,,,,,,,,,,,,1-5[8:1],,,,
,,,,,,,,,,,,,,,,
E
