&title=夜乃風車 feat. 花たん
&artist=CrazyBeats
&first=0.03
&des=藤原氏
&lv_5=13+
&inote_5=(158)
{1},
{8}3>6[8:5]/6,,4h[8:5],,,,,,
,35,46,,7v4[8:1]/1v4[8:1],8,17,,
5-1[8:1],,56,,7,8-4[8:1],,18,
2,2h[8:1],4,4h[8:1],5,5h[8:1],7,7,
6<3[8:5]/3,,5h[8:5],,,,,,
,64,53,,2-6[8:1]/7-1[8:1],,72,,
{16}1/5p4[2:1],,,,56,,,,,,,,,,7,4,
6,5,6,,3,4,3,,7,8,7,,2,1,2,,
1-5[8:1]/8-4[8:1],,,,18,,,,46,,7,,35,,2,,
,,1>4[8:1],,1,,,,8-4[8:1],,7,,6h[8:1],,,,
5-1[8:1]/8-4[8:1],,,,58,,,,2>4[8:1],,8<6[8:1],,2,,8,,
3,4,3,,6,5,6,,2,1,2,,7,8,7,,
5-1[8:1]/4-8[8:1],,,,54,,,,53,,2,,64,,7,,
4-8[8:1]/6,,35,,24,,,,2-8[8:1]/7-3[8:1],,,,27,,,,
5-1[8:1],,,,56,,4-1[8:1]*-7[8:1],,,,4b,,,,2,2,
8,7,6,5,1,2,3,4,7,6,5,4,8,1,2,3,
4h[8:7]/8h[8:7],,,,,,,,,,,,,,,,
6,5,6,5,,46,,7,1,8,1,,7,5,7,,
8-3[8:1],,3-7[8:1],,,,,4,4-7[8:1],,7-3[8:1],,,,,,
8,2,8,2,,16,,5,3,4,3,,6,5,6,,
1,2,3h[8:1],,7,6,5h[8:1],,8,1,2,3,48,7,6,5,
3,4,3,4,,53,,2,8,1,8,,2,4,2,,
1-6[8:1],,6-2[8:1],,,,,5,5-2[8:1],,2-6[8:1],,,,,,
1,7,1,7,,83,,4,6,5,6,,3,4,3,,
8,7,6h[8:1],,2,3,4h[8:1],,1,8,7,6,15,2,3,4,
5/8<5[2:1],,,,4,,,,3,,,,2,,,,
4/1>4[2:1],,,,5,,,,6,,,,7,,6,6,
5qq2[8:5],,,,6,,,,7,,,,8,,,,
1qq6[8:5],,,,3,,,,4,,,,5,4,3,2,
1>5[2:1],,,,5,,,,6,,,,7,,,,
5/8<4[2:1],,,,4,,,,3,,,,2,,3,3,
4pp7[8:5],,,,3,,,,2,,,,1,,,,
8pp3[8:5],,,,6,,,,5,,,,4,5,6,7,
8,,2,1,3,,7,8,6,,3,4,2h[8:1],,1q5[8:1],,
,,18,7,6<1[8:1],,,,46,,2,3,4-8[8:1],,5,,
4/6-1[8:1],,7,,16,,2,,35,,2-6[8:1],4,3,,82,,
,,7,5,7,,46,,2-5[8:1]/5-8[8:1],,,,25,,,,
48,,3,4,2,,6,5,7,,2,1,3h[8:1],,4-8[8:1],,
,,47,6,5h[8:1],,1,,2,,3,,46,,57,,
8-4[8:1]/1,,,,1,2,3-6[8:1],,,,36,,7,,8b-4[8:1],,
,,2bv5[8:1]/8bv5[8:1],,,,2b-6[8:1]/8,,,,2b,,4b,,,,
5<8[8:1],,8>3[8:1],,3p6[16:3]*>7[16:3],4,5,,,,,,,,,,
5<8[8:1],,8>3[8:1],,3p6[16:3],4,5p4[16:5],,,,,,,,,,
7-3[8:1],,3-7[8:1],,7,,1,,2-5[8:1],,5V38[16:3],,2,,6,,
7<4[8:1],,1>4[8:1],,7-3[8:1],,1-5[8:1],,7,,1,,,,,,
4>1[8:1],,1<6[8:1],,6q3[16:3]*<2[16:3],5,4,,,,,,,,,,
4>1[8:1],,1<6[8:1],,6q3[16:3],5,4q5[16:5],,,,,,,,,,
,,1-5[8:1],,,,1/7-4[8:1],,6,,47,,3,,2,1,
3,8,4,7,5,6,8,7,1,6,2,5,3,4,2,,
{24}5<8[8:1],,,1,,,2,3,4,5qq5[4:1],1,2,3,4,,,,,,,,,,,
5<8[8:1],,,1,,,2,3p8[8:3],4,5,1,2,3,4,,,,,,,,,,,
{16}6-1[8:1],,1V74[16:3],,6,,3,,2-6[8:1],,1,,2,,7,,
8<5[8:1],,2>5[8:1],,8q1[8:3],,2,,8,,4h[4:1],,,,,,
{24}4>1[8:1],,,8,,,7,6,5,4pp4[4:1],8,7,6,5,,,,,,,,,,,
4>1[8:1],,,8,,,7,6q1[24:11],5qq2[12:5],4,8,7,6,5,,,,,,,,,,,
{16},,8-4[8:1],,1,,8,,2,,3-6[8:1],,,,37,,
8,1,2,3,4,5,6,7,84,5,6,7,8,1,2,3,
6,5,7,5,,46,,7,1,8,1,,7,5,7,,
8>3[8:1],,3-7[8:1],,,,,4,4<7[8:1],,7-3[8:1],,,,,,
8,2,8,2,,16,,5,3,4,2,,6,5,7,,
1,2,3h[8:1],,7,6,5h[8:1],,8,1,2,3,48,7,6,5,
3,4,2,4,,53,,2,8,1,8,,2,4,2,,
1<6[8:1],,6-2[8:1],,,,,5,5>2[8:1],,2-6[8:1],,,,,,
1,7,1,7,,83,,4,6,5,7,,3,4,2,,
8,7,6h[8:1],,2,3,4h[8:1],,1,8,7,6,15,2,3,4,
5/8b-4[8:7],,,,,,,,,,,,,,,,
1,,2,,2,,3,5,5,4,6,,,,,,
1b-5[4:3],,,,,,,,,,,,,,,,
6,7,8,,4,3,2,,8,7,6,5,3,2,1,8,
4b-8[8:7],,,,,,,,,,,,,,,,
4,,3,,3,,2,8,8,1,7,,3,,,,
1b-5[2:1]/2b-8[16:7],,,,,,,,,,,,,,,,
7,8,7,,2,3,2,,4,3,2,1,8b/4b,3b/7b,6b/2b,1b/5b,
