&title=Sky of Twilight
&artist=いとうかなこ(作曲:Shade)
&first=0
&des=Kondou for GORILLA
&lv_5=14+
&inote_5=(216){1},
{4}
3h[4:4]/B4/E4,,,,,,,,
6h[4:2]/B5/E6,,E7,,B8/E8/7h[4:2],,E1,,
8h[4:2]/2h[4:2],,,,7h[4:2]/3h[4:2],,,,
6h[4:4]/4,,,,B5,,C,,
2<6q2[4:7],,,,,,,,
5,,4,,3h[4:2],,,,
6/2^4[4:2],,,,3/7^5[4:2],,,,
{8}1h[8:2],,,8h[8:2],,,7,,
{16}75,,6,5,6,,3>5[8:3],4,3,,5x,,,,,,
1b-6[8:1],,,,2,,2,,3-8[8:1],,3,,4,,,,
1x^4[8:1]/5x,,,,8,,8,,7^4[8:1],,7,,1,,,,
6x-2[8:1]/2x,,,,3,,3,,4-1[8:1],,4,,5,,,,
6x/2x^5[8:1],,,,1,,,,1,8,7,6,5/1,,,,
3x-7[8:1]/7x,,,,6,,6,,5-8[8:1],,5,,4,,,,
3x/7x^4[8:1],,,,8,,8,,1-5[8:1],,1,,8,,,,
7x-3[8:1]/4x,,7,,1,,,,2x-6[8:1]/5x,,2,,8,,,,
7,5,7,5,7,5,7,5,8bw4[8:1],,,,,,,,
2b/6b,,3,,4,,5,,36,,4,,5,,6pp1[8:4],,
,,1,,2,,3,,4,,4bh[8:2],,,,,,
7/3,,6,,5,,4,,63,,5,,4,,3qq8[8:4],,
,,8,,7,,6,,5,,5bh[8:2],,,,1,2,
34,,4,,51,,1,,28,,8,,75,,5,,
64,,64,,53,,53,,2,4,2,4,3,4,3,4,
2bh[8:2],,,,8,,8bh[8:2],,,,4,,4bh[8:2],,,,
6,,6bh[8:2],,,,,,8bz4[8:2]/1bs5[8:2],,8b/1b,,,,,,
,,,,,,,,2h[8:4],,,,,,,,
3h[8:4],,,,,,,,4h[8:4],,,,,,,,
5qq1[8:6],,,,,,,,,,,,,,,,
,,,,,,,,82,,,,3,,3,,
4-7[8:2],,,,,,,,1,,,,2-5[8:2],,,,
,,,,7,,,,8,,8h[8:2],,,,,,
17,,,,6,,,,45,,,,3,,3h[8:3],,
,,,,1,,,,12,,2,,81,,1,,
7b/8b,,,,6-4[8:1],,,,1,,1h[8:2],,,,7-3[8:1],,
,,5,,5h[8:2],,,,1,,1,,3qq7[8:4],,,,
8,,,,6,,6h[8:3],,,,,,8>5[8:3],,,,
,,,,7,,,,8,,8,,71,,,,
3-1[8:1]/4,,,,4,,5,,6-8[8:1],,,,4,,3,,
2-5[8:1],,,,5,,6,,7-3[8:1],,,,2,,,,
1,,1,,4h[8:1],,3,,5h[8:1],,4,,6h[8:1],,5,,
7,,7,,81,,81,,8h[8:2]/1h[8:2],,,,,,,,
6x/3hx[8:4],,,,,,,,B1/E2/B2,,,,7h[8:4],,,,
,,,,5,,,,E6/B6/E4/B3,,,,,,,,
3x/6hx[8:4],,,,,,,,B8/E8/B7,,,,2h[8:4],,,,
,,,,4,,,,E4/B3/E6/B6,,,,,,,,
8x/5xh[8:4],,,,,,,,4,,,,4h[8:4],,,,
,,,,2,,,,E1/C/E5,,,,,,,,
7b-2-8[8:4]/3b-6-4[8:4],,,,,,,,,,,,,,,,
,,,,,,,,{12}3,,3,4,,4,
{16}8V26[8:4],,,,,,E,,B7/B8,,,,,,,,
1,,,,1,,,,B7/C/B3,,,,{12},,2,
{16}1V73[8:4],,,,,,E,,B2/B1,,,,,,,,
8,,,,8,,,,1,2,3,4,5,6,7,8,
1^4[8:1],,,,7b/1b,,,,8,,6b^1[8:1]/2b,,,,2,,
4b-8[16:2],,,,7,,7,,2,6,2,6,3,5,3,5,
4bh[8:3],,,,,,2bh[8:3],,,,,,1b,,,,
,,8xh[16:1],,,,8xh[16:2],,1,2,3,4,7,6,5,4,
1bV35[8:2],,,,5V71[8:2],,,,1>5[8:2],,,,5pp3[8:3],,6h[8:3],,
,,,,,,,,8,,8,,7-4[8:1]/1,,,,
5-1[8:1],,,,8h[8:2],,,,2,3,4,5,7pp4[8:3]/6,,,,
2,,,,3,,3h[8:4],,,,2,,1,,8,,
7b/1b,,,,6-4-7-1[8:3],,,,1,,,,2,,2-5[8:1],,
,,1-6[8:1],,,,2,,2^5[8:1],,,,8/2,,,,
7bh[8:2]/6hx[8:2],,,,,,2bh[8:2]/3hx[8:2],,,,,,8b/1b,,,,
,,54,,54,,54,,3,4,3,4,2,,2,,
7bV53[8:2]/1b,,,,3V17[8:2],,,,7<3[8:2],,,,3qq6[8:3],,2h[8:3],,
,,,,,,,,4,,4,,3-8[8:1],,,,
8,7,6,5,4-7[8:1],,,,1,2,3,4,5-2-8[8:2],,,,8b-4[8:1]
,,,,,,,,6,,6,,5,,5,,
4b-1[8:1]/7b,,4,,8-5[8:1],,8,,2-6[8:1],,2,,7-3[8:1],,7,,
4^1[8:1],,4,,8^5[8:1],,8,,3,,3,,2b/4bx,,,,
1,8,1,8,1,8,1,8,1,8,1,8,1,8,1,8,
2,7,2,7,3,6,3,6,4bh[8:2],,,,,,,,
4,3,2,1,8,7,6,,,,6<3[8:3],,,,4h[8:3],,
,,,,,,,,5,,6h[8:3]/4,,,,,,
8-2[8:1],,,,8^5[8:1],,,,4,,4h[8:3],,,,,,
2-6[8:1],,,,,,1b,,,,,,7,8,7,8,
7-5[8:1]*-3[8:1],,,,7,,,,2x-8[8:1]*-4[8:1],,,,2,,,,
6x-8[8:1]*-2[8:1],,,,6,,,,3x,1,3,1,3,,,,
{24}7b/8h[8:1],6,5,4,,,,,,2b/1h[8:1],3,4,5,,,,,,7b/8b,61,52,{16}4s8[8:1]/3z7[8:1],,
,,,,,,,,1,6,1,6,1h[8:2],,,,
4b^7[8:1],,,,4/2-6[8:1],,,,8,,8-4V61[8:3],,,,2,,
,,3,,3,,,,8,5,8,5,8p4[8:1],,,,
2q6[8:1],,,,21,,,,1,8,7,6,1/5h[8:2],,,,
3bV52[8:2]*-6-1[8:2],,,,,,,,,,,,8,,8,,
7x/5x,,6,,2x/4x,,3,,7x/5x,,6,,2x/4x,,3,,
8x/5x,,6,,1x/4x,,3,,8x/5x,,6x/3x,,4b/1b,,,,
{8}2,2,4,4,1,8,
3,3,5,5,1,8,
4,4,6,6,1,8,
5,5,7,7,1,8,
6,6,8,8,{16}2,1,2,1,3b,,,,
{8}7,7,5,5,8,1,
6,6,4,4,8,1,
5,5,3,3,8,1,
4,4,2,2,8,1,
3,3,1,1,7,7,{16}5,6,5,6,
4b-2v1[8:2],,,,,,,,
{12}7,6,5,2,3,4,8,7,6,4,3,2,
{16}8,7,6,5,8,1,2,3,4V62-5[8:3],,,,,,,,
1x,8x,7x,,4x,,4x,,2,,8,,6,,3h,,1h,,7h,,4-2-5-1[8:3],,2,,8
,,,,,,,,8,7,6,5,2,3,4,5,
8,1,2,3,4,5,8,1,2,3,4,5,7,8,1,2,5,4,3,2,
{16}8x/1x,7,6,5,4x/8x,7,6,5,4x/8x,7,6,5,4x/8x,7,6,5,4x/8x,7,6,5,4x/8x,
7,6,5,4x/8x,7,6,5,4h[8:2]x/8x,,,,,,,,4h[8:2],,,,,,,
,{12}3,4,3,5,4,5,1h[8:2]x,,,,,,
{12}2pp8<1[8:6],,,2,,,,,,E6f/B6/B5,,,,,,7,6,5,4h[8:2],,,6,5,4,
3h[8:2],,,5,4,3,2,1,8,7,6,5,
4h[12:1]/3h[12:1],,,1h[12:1]/2h[12:1],,,5h[12:1]/4h[12:1],,,8h[12:1]/1h[12:1],,,
{8}65,7,8,1/2pp1[8:3],,,6,,
{12}6,7,8,4,3,2,5,6,7,3,2,1,
4,4,2,5,5,1,6,6,8,7,7,5,
8,4,6,2,4,8,7bh[8:2]/1bh[8:2],,,,,,
6x,5,6,3x,4,3,6x,5,6,3x,4,3,
7x,5,7,2x,4,2,7x,5,7,2x,4,2,
7x,8,7,2x,1,2,7x,8,7,2x,1,2,
6x,8,6,3x,1,3,6x,8,6,3x,1,3,
{16}7,8,7,8,7h[8:1],,,,3,5,3,5,3h[8:1],,,,
1,2,8,2,8h[8:1],,,,4,6,2,6,2h[8:1],,,,
4,3,4,3,5,4,5,4,6,5,6,5,7,5,7,5,
8,4,8,4,1,3,1,3,8hb[8:2],,,,,,,,
{16}2,3,4,5,2x,3x,4x,5x,8,7,6,5,8x,7x,6x,5x,3,2,1,8,3x,2x,1x,8x,
6,5,4,3,6x,5x,4x,3x,8,7,6,5,1,8,7,6,2,1,8,7,3,2,1,8h[16:3],
,,{24}6b,5b,4b,3bh[8:2],,,,,,,,,7bqq5[8:1]/2bpp4[8:1],,,,,,,,,
{8},,,,,,,,4h[4:4],,,,,,,,5,,,,,,,,
6h[4:2],,,,5h[4:2],,4,4,4>6[2:3],,,,,,,,,,5,,5,,,,3>5[2:3],,,,,,,,,,,,,,8,8,8qq4[8:10],,
,,,,,,,,,,,,,,7pp3[8:10]/8,,,,,,,,,,,,,,1,1,{4}1-7-2-6-3-5^4-6-3-7-2-8[8:30],,,,,,,,8,,,,,,,,
{8}
6hb[8:8],,,,,,,,
5,,5,,4/6,,,,
2h[8:4]/3,,,,4,,,,
7h[8:4]/6,,6,,5,,,,
8h[8:4]/2h[8:4],,,,,,3,4,
2h[8:2],,,,7/8,,,,
3/4,,,4,1,,6hb[8:6]/3hb[8:6],,
,,,,,,,,
7h[8:16]/2,,,,C,,,,
1,,1,,C,,,,
3h[8:12],,,,C,,,,
5,,5,,6,6,75,75,
8-4[8:1],,1b,,2,2-6[8:1]/6,,8,
8-4[8:1],,1,1,{8}5,6,71,2,
{8}3xh[8:2]/1xh[8:2],,,8xh[8:2]/1xh[8:2],,,6bh[8:2]/8bh[8:2],,,,,,{12}3,6,3,6,3,6,
{16}4,5x,4,5x,4,6x,4,6x,4,7x,4,7x,4,8x,4,8x,4,1x,4,1x,4,2x,4,2x,4-1[8:1],,,,,,,,
7b-4[8:1]/3b-7[8:1],,,,3/7>4[8:2],,,,5x,,5pp3[8:3],,,,8h[8:3],,
,,,,,,,,71,,6,,5-1[8:1]/4,,,,
5/2-4[8:1],,,,8/2,,,,8,7,6,5,4/8-4[8:1],,,,
6<3[8:2],,,,5,,5h[8:3],,,,,,2,,1,,
8b/4b,,,,3-5-2-8[8:3],,,,5,,,,7,,7-4[8:1],,
,,2-5[8:1],,,,8,,8-4[8:1]*-3[8:1],,,,8,,,,
6b/2b,,1,,1,,8b/2b,,7,,7,,6b-2[8:1]/5b,,,,
,,4,,4,,4,,3,5,2,5,1,,1,,
8b/2b-6[8:1],,,,5<3[8:2]/2,,,,4,,4qq6[8:3],,,,1hx[8:3],,
,,,,,,,,8-4[8:1],,8,,1h[8:2],,,,
3,2,1,8,7h[8:2]/3,,,,5,6,7,8,1/4,,,,
3b^5-2[8:2]/6b-1^7[8:2],,,,,,,,,,,,3,,3,,
6b/4b-1[8:1],,4,,8,,8,,5b/3b-8[8:1],,3,,7,,7,,
2b-7[8:1]/4b,,2,,6,,6,,1,5,1,5,1h[8:2],,,,
8b,,,,2,,2,,4,,3,,7,,7,,
5,,6,,2,,2,,4,3,4,3,4h[8:2],,,,
8bh[8:3],,,,,,6,,6,5,6,,2,,2,4,
2,,7,,7,8,7,,1,5,1,5,2,4,2,4,
3,4,3,4,2,,2,,13,,8,,7,,6,,
53,,2,,38,,6,,1,7,1,7,2,6,2,6,
3bh[8:2],,,,,,1h[8:2]/7bh[8:2],,,,,,5b/4b,,,,
4,5,4,5,4,5,4,5,3,6,4,5,2,7,4,5,
1b^4[8:1],,,,1x/5x-2[8:1],,,,7,,7,,6x/1x,,,,
8^5[8:1]/2,,,,8x/4x-7[8:1],,,,2-5[8:1],,,,2x/1x,,,,
78,,1,5,2,4,3x,,7,3,6,4,5x,,1,5,
2,4,3x,,7,3,6,4,5x-1[8:1],,,,,,,,
2b-5[8:1],,2,,7-4[8:1]/2x,,7,,7x/1q5[8:1],,1,,1x/8p4[8:1],,8,,
3^8[8:1]/8x,,3,,3x/6-2[8:1],,6,,6x/4,,4,,4x/1x,,,,
4,5,3,4,2,4,2,4,2,4,3,5,2,4,2,4,
1,5,1,5,8,6,8,6,1bh[8:2],,,,,,,,
E1f,,,,,,,,Ch[8:4],,,,,,,,
8h[8:2],,,,,,,,E2/E3/E4,,,,,,,,
E7,,,,,,,,Ch[8:4],,,,,,,,
5h[8:2],,,,,,,,2,3,4,5,8,7,6,5,
1hbx[8:2],,,,8,,,,7hx[8:2]/3x,,,,5,,,,
3x/4x,,,,2,,2,,8x,,,,65,,,,
{12}2b,,4,3,5,4,6x,,2,4,3,5,4x,,7,5,6,3,4,3,6,5,6,3,
{16}5,4,5,4,5,4,5,4,6x,4,5,4,5,4,5,4,
6x,4,5,4,5,4,5,4,7b,,,,2,4,3,5,
4,5,4,5,3x,5,4,5,4,5,4,5,3x,5,4,5,
3x,6,5,6,5,6,5,6,2x,4,3,4,1x,5,4,5,
8bh[8:4],,,,,,,,7,,,,,,1h[8:5]/2pp4[8:3],,
,,,,,,,,,,,,,,,,
6^1[8:3]/5bh[8:4],,,,,,,,,,,,,,3h[8:3],,
,,4,,4,,,,{12}2,3,4,7,6,5,
{16}1b,,,,2,,2-5[8:1]/4,,,,6,,,,8-4[8:1]/1,,
,,3,,,,2qq5[8:3],,,,7h[8:2],,,,,,
6b,,6,,6,,4b,,4,,4,,1b,,1,,
2,8,3,7,4,6,4,6,3,6,2,5,1,4,1,4,
1b-5b[8:1],,,,81,,7,,6-2[8:1],,6,,3,,,,
8b-5b[8:1]/4b,,,,81,,2,,3-6[8:1],,3,,7,,,,
8b/2b^5b[8:1],,,,25,,6,,7v4[8:1],,7,,1,,,,
6b-3b[8:1]/2b-7[8:1],,,,6/2,,,,8xb-4[8:1]/4xb,15,26,37,8x/4x,,,,
5bx/2bq6[8:1],,,,21,,1,,1^4[8:1],,,,8/1,,,,
6,,6,,7/5-8[8:1],,,,5/2-6[8:1],,,,1/2,,,,
7b/4bqq5[8:3],,,,5,,,,8,,8^5[8:1],,,,2,,
2-6[8:1],,,,2/4h[8:2],,,,7,8,1,2,7/3,,,,
1b/8b,,18,,3,,4,,78,,78,,5,,6,,
2-5[8:1],,1-6[8:1],,2,,1,,4,3,2,1,84,,4,,
3b/5b,,35,,2,,1,,64,,64,,8,,7,,
4-8[8:1],,5-7[8:1],,4,,5,,1,2,3,4,5/1,,1,,
8b/3b,,82,,81,,74,,73,,72,,65,,65,,
4b/3b,,52,,61,,78,,6b/5b,,65,,34,,34,,
2,4,3h[8:1],,7,5,6h[8:1],,1,3,2h[8:1],,8,6,7h[8:1],,
3,5,1h[8:1],,6,4,8h[8:1],,1,8,1,8,2,7,3,6,
4b,5,4,5,4,5,4,5,4,5,4,5,4,5,4,5,
3b,5,3,5,3,5,3,5,3,5,3,5,3,5,3,5,
2b,6,2,6,2,6,2,6,2,6,2,6,2,6,2,6,
1b,7,1,7,1,7,1,7,2b,6,2,6,3,5,3,5,
4b^1[8:1],,,,4x/5x,,,,7-3[8:1],,7,,7x/8x,,,,
1q5[8:1],,,,1x/8x,,,,6^1[8:1],,6,,6x/5x,,,,
2-5[8:1],,2,,2x/1x,,,,7-4[8:1],,7,,7x/8x,,,,
1-6[8:1]*-4[8:1],,,,1x,,,,8-5[8:1]/2-5[8:1],,,,8x/2x,,,,
{12}6bxh[12:12],,,,7x,,,,7x,,,,
4bxh[1:1],,,,3x,,,,3x,,,,
7bxh[12:12],,,,6x,,,,4x,,,,
1bxh[12:8],,,,2x,,,,5x,,,,
{16}4,5,4,5,3x,4x,3,4,3,4,2x,4x,2,4,2,4,
1x,5x,1,5,1,5,2x,6x,2,6,2,6,3x,6x,4,6,
5,6,4x,7x,4,7,4,7,2x,8x,2,8,2,8,4x,6x,
4,6,4,6,8x,7x,8,7,8,7,1,6,8,7,2,5,
{4}8bh[8:16],,,,,,,,,,,,E6,,E5,,
E4,,,,E7/E8,,,,E3/E2,,,,C,,B5/B4,,
6h[8:12],,B7,,8h[8:4],,,,2h[8:12],,B3,,4,,5,,
6hx[8:32],,,,{8}E6,E7,E8,E1,E2,E3,E4,,Ch[8:16],,,,
,,,,,,,,,,,,,,,,
,,,,,,,,,,,,,,,,
,,,,,,,,,,,,,,,,
,,,,,,,,,,,,,,,,
