&title=超最終鬼畜妹フランドール・S
&artist=COOL&CREATE
&first=0
&des=Tzddxg
&des_5=Tzddxg
&lv_5=14
&inote_5=(210){2},2b<1[2:1]b-5[2:1]b/3bv5[1:1]b,,,{4},3b/8b,3b<5[2:1]b-8[2:1]b/8b-5[2:1]b>3[2:1]b,,,,,,,5b/8b,5bp8[2:1]b/8b-5[2:1]b,,,,5b-8[2:1]b/8bz4[2:1]b,,,,1b/7b,,3b/5b,,2b/8b,2b/8b,{16}4,6,4,6,4,6,4,6,
{8}4-8[8:1],,7,5-1[8:1],,2,4-8[8:1],,5-7[8:1],,3,4-2[8:1],,6,5-1[8:1],,2-4[8:1],,8,7-4[8:1],,1,2-5[8:1],,8,,7,,36,,,,36,5,4,5,36,4,5,4,27,8,1,8,27,1,8,1,2b-6[8:1]/7b,,2b/7b-3[8:1],,4b-8[8:1]/7b,,4b/5b,5bpp1[2:1]b,,2b,2b-4[8:1]b,,2,,,,
8-4[8:1],1,8,2,2-6[8:1],8,2,7,7-3[8:1],2,7,1,1-5[8:1],7,1,{16}8x,7x,{8}6x-1[8:1],3,6,4,4-1[8:1],6,4,5,5-8[8:1],3,5,4,{16}1,2,3,4,{8}5,,17,5,28,4,{16}7b,8,7,8,{8}7,,28,4,17,5,{16}2b,1,2,1,{8}2,,2b/7b-3[8:1],,2b-6[8:1]/7b,,2b/5b-1[8:1],,4b/5b,4b-8[8:1],,7b,7b,,{16}1,2,3,4,5,6,7,8,
{8}16,6,6,6,35,35,3,3,47,47,7,7,28,28,2,2,{24}5x,3x,5x,{8}3x,,,{24}4x,6x,4x,{8}6x,,28,,1,46,8,35,{24}46,7,8,,,,2,3,4,{8}57,7,7,7,28,28,2,2,35,7,35,1,{24}3,4,5,6,7,8,1,2,3,4,5,6,{2}7-2[30#55:1]*-4[30#55:1],,{8}8,,8,,8,,7,,
6,6,6,6,6,6,6,{16}3x,5x,3x,5x,{8}3x,7,7,7,7,{16}4x,6x,4x,6x,{8}4x,3,3,3,3,3,{16}8,7,6,5,{4}4-7[8:1],2-5[8:1],6-1[8:1],3,{8}3,3,3,3,3,3,3,{16}6x,4x,6x,4x,{8}6x,2,2,2,2,{16}6x,4x,6x,4x,{24}6bx,7x,8x,1x,,,5bx,4x,3x,2x,,,8bx,7x,6x,5x,,,1bx,2x,3x,{8}4x-7[8:1],,1,1-5[8:1],,1-3[8:1]*-7[8:1],,1,,
{2}4h[4:1]/6h[4:1],3h[4:1]/5h[4:1],1h[4:1]/7h[4:1],2h[4:1]/8h[4:1],2h[4:1]/4h[4:1],3h[4:1]/5h[4:1],4h[4:1]/6h[4:1],5h[4:1]/7h[4:1],{12}3,4,3,6,5,6,{16}2,,,1,,,8,,{12}6,5,6,3,4,3,{16}7,,,8,,,1,,{12}3,4,2,6,5,7,{16}2h[8:1],,,3h[8:1]/5h[8:1],,,46,,8,7,6,5,4,3,2,1,{24}5,4,3,2,1,8,7,6,5,4,3,2,
{4}1-5[1:1],,7,,8-4[1:1],,2,,1s5[1:1],,7,,8z4[1:1],,2,,3qq7[1:1],,5,,6pp2[1:1],,4,,1s5[1:1],,7,,8z4[1:1],,2,,
1-4[8:1],,5-8[8:1],,3-8[8:1],,7-4[8:1],,1q6[8:1]/2>5[8:1],,7<4[8:1]/8p3[8:1],,5q2[8:1]/6<1[8:1],,3>8[8:1]/4p7[8:1],,34,25,78,16,45,36,27,18,{8}7,7,2,2,8,{16}1,8,{8}1,18,{2}2h[1:1]/7h[1:1],,,{8}2b-5[8:1]/7b-4[8:1],,2b/7b,,
2-8[8:1]/7,,2/7-3[8:1],,4-1[8:1]/7,,46,6-8[8:1]-4[8:1]-7[8:1],,4,3,2,1-4[8:1]*-6[8:1],,1,,28,3,17,6,28,{16}3,4,{8}3,17,8-4[8:1],2-6[8:1],8<1[4:1],2,8,,,,2/7-1[8:1],,2-6[8:1]/7,,2/5-8[8:1],,35,3-1[8:1]-5[8:1]-2[8:1],,5,6,7,8-3[8:1]*-5[8:1],,8,,17,6,28,3,17,{16}6,5,{8}6,28,{24}1b,2,3,4,,,7b,6,5,4,,,18,27,36,45,,,{8}18,,
4/7-1[8:1],{16}6,5,{8}7-3[8:1],2,7,4,18,2>6[8:3]/7,,6,7,8,1>4[8:1]*<6[8:1],,1,,28,4,17,5,28,{16}4,5,{8}4,17,,{16}16,5,{8}4,28,{16}1,2,3,4,{8}1b/5b,,2-8[8:1]/5,{16}3,4,{8}2-6[8:1],7,2,5,18,2/7<3[8:3],,3,2,1,8>3[8:1]*<5[8:1],,8,,17,5,28,4,17,{16}5,4,{8}5,28,{24}1,2,3,4,5,6,7,8,1,2,3,4,{8}5-1[8:1],,5,,
28,,28,,28,17,,26,,35,46,28,17,,4b-1[8:1]/5b-8[8:1],,,,
{16}3,5,3,5,4,6,4,6,2,3,4-8[8:1],,,,7,6,{8}5,17,1v4[8:1]/7v4[8:1],,17,,{16}8,7,6,5,14,2,3,4,5,,17,26,{8}35,17,,{16}46,37,{8}28,46,2v5[8:1]/8v5[8:1],,28,,17,6,28,3,46,{16}8,1,{8}8,27,{24}1/6,5,4,,,,38,4,5,,,,2-8[8:1]/7-3[8:1],36,45,{8},,,
47,{16}6,5,6,,25,3,4,3,{8},48,3h[4:1]/7h[4:1],,{16},26,15,,{8}37,46,{16}3,4,3,,2h[4:1],,,,6,5,7,,3,4,{8}2,78,16,2/5h[4:1],,2,34,7,5-2[8:1]/6-1[8:1],,56,,{16}8,7,6,5,14,2,3,4,5,,17,26,{8}35,17,,{16}46,37,{8}28,46,2-4[8:1]/8-6[8:1],,28,,17,5,28,4,57,{16}2,1,{8}2,38,{24}2,3,4,5,6,7,8,1,2,3,4,5,{8}6-2[8:1],,6,,
7,7,4,6,3,3,5,2,46,6,3,5,4,4,6,2,17,6,3,5,28,{16}3,4,{8}3,78,
{16}3,5,3,5,4,6,4,6,{32}1x,2x,3x,4x,8x,7x,6x,5x,{24}1x,2x,3x,8x,7x,6x,2x,3x,4x,7x,6x,5x,{32}1x,2x,3x,4x,8x,7x,6x,5x,{16}1x,2x,3x/8x,7x,2x/6x,3x,4x/7x,6x,{8}2x/5x,,{24}1b/5b,26,37,4qq1[8:5]b/8qq5[8:5]b,E
