&title=To the Milky Way
&artist=黒魔
&first=0
&des=lain
&lv_5=14
&inote_5=(186){1},
{8}E1/B1,E7/B7,E3/B3,E5/B5,,C1,,B8,,E2,E3,E4,E5,,
{8}E8,E2,E6,E4,B8/E1,B4/E5,,C1,,4xv1-3[2:1]*v7-5[2:1],{1},
{8}E7/B7,E3/B3,E5/B5,E1/B1,,C1,,B1,,E8,E7,E6,E5,
{8}1<6[8:1],2,3,,3>8[8:1],4,5,,5>2[8:1],6,7,,8xv5-7[3:1]*v3-1[3:1],{4}8,,,
{8}2h[8:1],3,6h[8:1],5,,1>4[8:1],,{16}15,6,7,,{8}7h[4:1],4-8[8:1],4,4x,,
{8}5,5h[8:1],8,8<5[8:1],1,2,,2pp6[3:2],,2h[3:2],,,,,,,,,
{8}7h[8:1],6,3h[8:1],4,,8<5[8:1],,{16}84,3,2,,{8}2h[4:1],5-1[8:1],5,5x,
{8}4x>1[8:1],4x,4x/C1/B8,,5x<8[8:1],5x,5x/C1/B1,,2,8,1>4[8:1],,
{16}16,7,{8}8q1[4:1],,,,,,
{8}1bxs5[2:3]/2bv3-5[2:3],{2}1b/2bx,,,
{8},,7xbv6-4[0.48##0.18]b/8bv5[0.48##0.18]b,,,{4}7b/8bx,,,
{8},2h[8:1],{16}8,1,7,2,8,1,2,3,7b,,,,
{8}73,8,1,26,3,4,51,6,7,84,1,2,37,
{8}3,2,1,7h[4:1]/8,1,2,3,4h[4:1]/5,6,7,8,1/2h[4:1],8,7,6,45,
{8},,,2b/7b,,{8},,B8,A1,C1,A2,E5,,A3,,
{32}E8,A8,,,,,,,E3,B3,,,,,,,E6,A5,,,,,,,{8}A1/E1,E3/B2,,E5/B5,E7/B7,E1/B1,{1},
{16}2b,8,4,5h[1:0],1,6,2b,5,4,7h[1:0],1,6,2b,8,3,5h[1:0],1,6,2b,8,4,5,1,7h[1:0],
{8},,{6}1h[12:1]/7h[12:1],2h[12:1]/8h[12:1],31,{8}3x/1x,,
{6}2h[12:1]/8h[12:1],7h[12:1]/1h[12:1],6x/8x,
{8}6h[2:1]/8<3[4:1]b,,,,,
{16}1,8,2/7<4[8:1],,4,,7,,3,2,1-5[8:1],,87,,1/7x<4[8:1],,,
{16},7,,3,2,1-5[8:1]b,,78,,1b,,8,,3,4,1,,6,5,8,,
{8}2-5[8:1]/6,1,2/8<5[8:1],1,2-6[8:1]/8,3,2/8p4[8:1],7,8/3h[4:1],,,,,
{16}73,62,5/1x<6[8:1],,7,7,1x-4[8:1],,5,5,1x-5[8:1],,8,8,1x,,6,6,4x,,
{16}7,8,5x,,2,1,4x,,7,8,5x,,2,1,4x,,,,
{16}7b,5,6b,5,7bh[8:1],,,,2b,4,3b,4,2bh[8:1],,,,
{6}8b/7b,3b/4b,5b/6b,
{16},,8,1,7/2>5[8:1],,5,,2,,6,7,8-4[8:1],,12,,8/2x>5[8:1],,,
{16},2,,6,7,8-4[8:1]b,,12,,8b,,1,,6,5,8,,3,4,1,,
{8}7-4[8:1]/3,8,7/1>4[8:1],8,7-3[8:1]/1,6,7/1p5[8:1],2,1/6h[4:1],,,,,
{16}62,73,4/8x-3[8:1],,2,2,8x-5[8:1],,4,4,8x>3[8:1],,1,1,8x-4[8:1],,
{16}4,4,8x-3[8:1],,2,2,8x-5[8:1],,4,4,8x,,1,1,4x,,
{16}7,8,5x,,2,1,4x,,7,8,5x,,2,1,4x,,7,1,5x,,2,8,4x,,6,1,5x,,3,8,4x,,
{16},7h[8:1],3-8[8:1]b,,,5,3x,,,7h[8:1],3>8[8:1]b,,,5,3x,,
{16},7h[8:1],3v8[8:1]b,,,5,3x,,,7h[8:1],3>8[8:1]b,,,5,3x,,
{16},7h[8:1],3x,,,,
{8}24,24,35,35,46,46,57,57,
{16}4,8,4,8,3,1,3,1,{32}2x,3,4,5,6,7,8,1,2b/6b,,,,,,,,
{16}12,,3b/8b,,,,,,78,,1b/6b,,,,,,{16}1b/C1f,2b,3b,,,45,,,7b/8b,,,,,,,,
{16}34,,2b/5b,,,,,,78,,1b/6b,,,,,,{16}8b/C1f,7b,6b,,,45,,,1b/2b,,,,,,,,
{1}1bxw5[2:13]/C1f,,,,,,,,
{8}7-3[8:1],7,3,4,5-1b[8:1],5,6,7,
{8}8<5[8:1],1,2,3>8b[8:1],4,,6b,,
{8}6-2[8:1],6,2,3,4-8b[8:1],4,5,6,
{8}7<4[8:1],8,1,2<7b[8:1],3,,5b,,
{8}2b/4bz8[8:10],7b/5bs1[8:9]b,,,{2},,,
{12}6b,3,8,2b,6,8,4b,2,1,5b,7,8,{1}4bh[2:1],
{16}25,,,,86,,,,34,,,25,,,78,,24,,,13,,,57,,{2}28,
{8}18,18,81,,{16}E2,B2,B3,E4,E8,B7,B6,E6,
{16}3b,5,4,6,
3,5,4,6,
3,5,4,6,
3,5,4,6,
3,5,4,6,
3,5,4,6,
{16}2b,4,3,5,
2,4,3,5,
2,4,3,5,
2,4,3,5,
2,4,3,5,
2,4,3,5,
{16}4b,6,3,5,
4,6,3,5,
4,6,3,5,
4,6,3,5,
4,6,3,5,
4,6,3,5,
{16}4b,6,5,7,
4,6,5,7,
4,6,5,7,
4,6,5,7,
4,6,5,7,
4,6,,,
{6}1h[12:1]/7h[12:1],34,2h[12:1]/8h[12:1],{8}56,,2,8,
{16}1b,7,2,8,
3,1,4,8,
3,7,2,6,
1,5,2,6,
{16}1b,5,2,6,
1,5,2,6,
1,5,2,6,
1,5,2,6,
{16}3b,5,2,6,
1,7,2,8,
3,7,2,6,
3,7,4,8,
{16}3b,7,4,8,
3,7,4,8,
3,7,4,8,
3,7,,,
{16}1b/3b,,1b/3b,,4,5,4,,6b/8b,,6b/8b,,5,4,5,,
{16}5b/3b,,3b/5b,,1,7,8,,2,3,1b/4b,,7,6,1b/5b,,8b-4[2:3]b,
{4},,,,,,{16},,,,,C1,,{1}8xbw4[4:9]b,,{2},
{16},,A1,B1,{8}C1,E8,E7,E6,E5,E4,E3,,{8}D8,D7,D6,D5,D4,D3,
{8}A1,D8,B2,B8,A2,D7,E3,B6,E4,D6,A3,A5,B4/C1f/B2/B6/B8,,,,
{16}1x,2x,3x,,5x,6x,7x,,
{16}2,1,2,1,3,8,3,8,1,6,1,6,8,7,8,7,
{16}3,4,3,4,2,5,2,5,4,7,4,7,5,6,5,6,
{16}4,5,4,5,3,4,3,4,1,8,1,8,2,7,2,7,
{32}2,3,4,5,6,7,8,1,2,3,4,5,6,7,8,1,
{16}2b/6b,,{16}B6,B5,E5,,,,
{8}7/1-4[8:1],8,7v4[8:1]/1,6,7/1>4[8:1],2,7/1,,
{4}1bxp5[8:1]/7bx<5[8:1],1bx>3[8:1]/7bxq3[8:1],1bxp5[8:1]/7bx<5[8:1],1bx/7bx,
{16}3b,4,3b,4,1bh[8:1],,,,6b,5,6b,5,8bh[8:1],,,,
{24}1b,2,3,,7b,6,5h[12:3],,2b,3,4h[12:1],,
{16},,8,1,7/2>5[8:1],,5,,2,,6,7,8-4[8:1],,12,,8/2x>5[8:1],,,
{16},2,,6,7,8-4[8:1]b,,12,,8b,,1,,6,5,8,,3,4,1,,
{8}7-4[8:1]/3,8,7/1>4[8:1],8,7-3[8:1]/1,6,7/1<5[32:3],2,1x/6h[8:1],
{32}4x,3,2,1,8x,7,6,5,4x,3,2,1,
{8}8x/6x,
{16},2h[8:1],6-1[8:1]b,,,4,6x,,,2h[8:1],6-1[8:1]b,,,4,6x,,
{16},2h[8:1],6-1[8:1]b,,,4,6x,,,2h[8:1],6-1[8:1]b,,,4,6x,,
{16},2h[8:1],6x,,,,
{8}75,57,46,46,35,35,26,26,
{16}1,5,3,7,1,5,2,8,3,5,
{16},2h[8:1],6-1[8:1]b,,,4,6x,,,2h[8:1],6<1[8:1]b,,,4,6x,,
{16},2h[8:1],6v1[8:1]b,,,4,6x,,,2h[8:1],6<1[8:1]b,,,4,6x,,
{16},2h[8:1],6x,,,,
{8}75,57,46,46,35,35,24,24,
{16}5x,1,5,1,6x,8,6,8,{32}7x,6,5,4,3,2,1,8,7b/3b,,,,,,,,
{16}2,1,3b/8b,,,,,,7,8,1b/6b,,,,,,
{16}1b/C1f,2b,3b,,,45,,,7b/8b,,,,,,,,
{16}3,4,2b/5b,,,,,,2,1,3b/8b,,,,,,
{16}8b/C1f,7b,6b,,,45,,,1b/2b,,,,
{16}E1,A8,E2,A2,B8,E8,B2,E3,E7,D7,E4,D4,E6,A6,E5,A4,,,,,
{1}5bx-1[8:31]b,,,,
{32}5bh[1:0]x,B5,C1,B1f,
