&title=Snow Goose
&artist=Mutsuhiko Izumi
&first=0.02
&des=HL
&lv_5=14
&inote_5=(200)
{1},
{16}4x,B5,{8}B6,3,2,1,8,7,6,
{16}5x,B4,{8}B3,6,7,8,1,2,3,
{16}8x,B1,{8}B2,7,6,5,4,3,2,
{12}7x,6,5,1x,2,3,8x,7,6,2x,3,4,
{16}8,7,6,5,1,2,3,4,7,6,5,4,1,2,3,4,
{16}5x,B4,{8}B3,62,7,8,1,2,3,
{16}4x,B5,{8}B6,37,2,1,8,7,6,
{16}1x,B8,{8}B7,26,3,4,5,6,7,
{12}3x,4,3,6x,5,6,2x,4,3,7x,5,6,
{16}4,5,4,5,3,6,3,6,2,7,2,7,
{32}1,2,3,4,5,6,7,8,
{8}1x>4[4:1],,A2,A3,8<5[4:1],,A7,A6,
{8}3x<6[4:1],,A4,A5,2<7[4:1],,A1,A8,
{8}4x>1[4:1],,A3,A2,5<8[4:1],,A6,A7,
{8}2x>8[8:3],,,,{16}A1,A2,A3,A4,A5,A6,A7,A8,
{8}4xz8[4:1],,B6,B1,5<8[4:1],,A6,A7,
{8}1xs5[4:1],,B7,B4,8<5[4:1],,A7,A6,
{8}1x>4[4:1],,A2,A3,8-4[8:1],,,,
{24}2x,3,4,5,2x,3,4,5,2x,3,4,5,1x,2x,3,4,1x,2x,3,4,1x,2x,3,4,
{8}5bh[4:1],,8,1h[4:1],,7,6,5,4h[8:5],,8h[8:3],,,,{16}15,26,37,48,
{8}1x/5xh[4:1],,8,7h[4:1],,1,2,3,4h[8:3],,7h[8:4],,,,,,
{8}2-7[8:1]/3,,,5-1[8:1],,,8,,
{8}1-4[8:1]/8,,,6-2[8:1],,,3,,
{16}8x,7,6x,5,4x,3,2x,1,8x,1,2x,3,4x,5,6x,7,8x,
1,8,7,6,2,1,8,7,3,2,1,8,4,3,2,
{8}1bh[4:1],,8,1h[4:1],,7,6,5,4h[8:5],,8h[8:3],,,,{16}15,26,37,48,
{8}5x/1xh[4:1],,4,3h[4:1],,7,6,5
,4h[8:3],,7h[16:6],,,,
{24}8x,1x,2x,3,4,5,
{8}6v7[8:1],,8-4[8:1],8,,5,,,3v2[8:1],,1-5[8:1],1,,4,,,
{8}2x,4,6x,4,1x,4,7x,4,{16}8,4,8,4,8,4,8,4,1,5,1,5,1,5,1,5,
{8}2x-6[8:1],2,,8<2[2:1],,A7,A5,A3,A1,{16}E1,E8,E7,E6,A8,A7,A6,A5,1,8,7,6,5,,
{8}7x-3[8:1],7,,1>7[2:1],,A2,A4,A6,A8,{16}E1,E2,E3,E4,A1,A2,A3,A4,8,1,2,3,4,,
{8}2x-6[8:1],2,,8<2[2:1],,A7,A5,A3,A1,{16}E1,E8,E7,E6,A8,A7,A6,A5,1,8,7,6,5,,
{16}3x,34,,6x,65,,3x,34,,6x,65,,3x,34,,6x,65,,
{16}2x/3x,2x/3x,,7x/6x,7x/6x,,2x/3x,2x/3x,,7x/6x,7x/6x,,,,
{8}Cf/2xh[4:1],,8,5,6,1,7,2,8xh[4:1]/Cf,,1,4,3,8,2,7,
{8}1xh[4:1]/Cf,,6,3,5,7,1,3,{24}7xb,6,5,{16}4x,3,2,1,
{16}8,7,6,5,4,3,2,1,8,,
{8}5xh[4:1],,4,7,6,1,{16}7,2,7,2,{8}8xh[4:1],,1,4,3,8,{16}2,7,2,7,
{8}1h[4:1],{16}A2,A3,A4,,8h[4:1],,A7,A6,A5,,2h[4:1],,A3,A4,
{16}8,7,6,5x,4,3,2,1,78,1x,2,3,4,5,6,7,
{8}18,,2-4[8:1],7-5[8:1],2-6[8:1],7,2,8,8b,,
{8}7-5[8:1],2-4[8:1],7-3[8:1],2,7,1,1x,,
{8}4-2[8:1],5-7[8:1],4-8[8:1],5,4,5,
{16}2,3,4,A5,1,8,7,A6,E1,E2,E3,E4,B7,B6,B5,B4,
{8}2-5-1-6-3[8:5],,7,7,7,8x,8x,,
{8}7-4-8-3-6[8:5],,2,2,2,1x,1x,,
{16}1,A2,A3,,{16}8,A7,A6,,
{16}1,B2,B3,,{16}8,B7,B6,,
{16}4,3,2,1,5,6,7,8,1,2,3,4,8,7,6,5,
{8}2x-6[8:1],2,,8<2[2:1],,A7,A5,A3,A1,{16}E1,E8,E7,E6,A8,A7,A6,A5,1,8,7,6,5x/1x,,
{8}7x-3[8:1],7,,1>7[2:1],,A2,A4,A6,A8,{16}E1,E2,E3,E4,A1,A2,A3,A4,8,1,2,3,4x/8x,,
{8}2x-6[8:1],2,,8<2[2:1],,A7,A5,A3,A1,{16}E1,E8,E7,E6,A8,A7,A6,A5,1,8,7,6,,,
{24}1x,2,3,4,1x,2,3,4,1x,2,3,4,
{24}1x,8,7,6,1x,8,7,6,1x,8,7,6,
{24}8x,7x,6,5,8x,7x,6,5,8x,7x,6,5,
{24}8x,1,2,3,8x,1,2,3,8x,1,2,3,
{8}4xbz8<2v4b[8:12],,,,,,,,,,,,,,,,
{16}1x,B8,{8}B7,2,3,4,5,6,7,
{16}8x,B1,{8}B2,7,6,5,4,3,2,
{16}5x,B4,{8}B3,6,7,8,1,2,3,
{12}7,8,7,2,1,2,6,8,7,3,1,2,
{16}8,1,8,1,7,2,7,2,6,3,6,3x,
{16}4,5,8x,7,
{16}4x,B5,{8}B6,37,2,1,8,7,6,
{16}5x,B4,{8}B3,62,7,8,1,2,3,
{16}8x,B1,{8}B2,73,6,5,4,3,2,
{12}7,7,5,2,2,4,6,6,4,1,1,4,
{12}2,4,3,6,4,5,3,4,1,7,5,8,
{8}26,,,,
{12}2x/7,2/7x,2x/7,3/6x,3x/6,5-1[8:1]/4x-8[8:1],,,,
{64}5b/4b,B5,B4,C,B8,B1,,,,,,,,,,,,,,,,,,,,,,,,,,,,,,,,,,,,,,,,,,,
